Ссылка на приватное зеркало нашего сайта всего за 1$. Внимание количество ограничено!!!

2 сезон

iTunes

1 сезон

1

2 сезон

2 сезон

iTunes

1 сезон

RePack

30

Новинка

ВАЖНО

ИГРА 18+

pack

RePack

MK11
pack

Забери бонус

RePack

jed

!!Акция!!

Alien_Rage

RePack

fifa19

RePack

Assassins Creed: Odyssey

RePack

NEED FOR SPEED™ PAYBACK

4 сезон

9 сезон

Бесстыжие 9 сезон

Все сериалы

все сериалы на PB.wtf

RePack

FAR CRY 5
  

Киллер по вызову / Lucky Day (Роджер Эвери) [2019, Боевик, триллер, криминал, BD Remux 1080p] AVO [М.Чадов] pb.wtf

Киллер по вызову через торрент pb.wtf

Раздают: 1 [ 0 KB/s ]
Размер: 19.34 GB | Добавлен: 6 мес. назад | Торрент скачан:70 раз
Скачать  

05-05-2020 13:46 Киллер по вызову Скачать торрент  

Киллер по вызову | Lucky Day
Год выпуска: 2019
Страна: Франция, Канада
Студия: Avary, Davis-Films, Don Carmody Productions
Жанр: Боевик, триллер, криминал
Продолжительность: 01:39:15
Перевод: Авторский (одноголосый) | Михаил Чадов
Субтитры: Английские

Режиссер: Роджер Эвери

rating

В ролях: Люк Брейси, Нина Добрев, Криспин Гловер, Элла Райан Куинн, Кле Беннетт, Клифтон Коллинз мл., Дэвид Хьюлетт, Надя Фарес, Томер Сислей, Марк Дакаскос

Описание: В первый же день после освобождения из тюрьмы взломщик сейфов Ред и его подруга становятся мишенью киллера. Сея вокруг себя хаос, киллер шутит с акцентом, что мстит за убитую собаку. Не спеша уничтожать жертву, он явно ведет свою игру, истинной целью которой может быть вовсе не Ред.

Качество: BD Remux 1080p
Формат: MKV

Видео: MPEG-4 AVC, 1920x1080, 24.0 Mbit/s, 23.976 fps
Аудио #01: 48 kHz, AC3, 5.1, 448 Kbps | Чадов (Ненорм. лексика) | RUS |
Аудио #02: 48 kHz, DTS-HD MA, 5.1, 3426 Kbps | Оригинал | ENG |
скриншот  скриншот  скриншот  скриншот  скриншот  

General
Unique ID : 150212191213790679400615132027920684351 (0x7101D0D22DA3E557C9E5F542A2CD953F)
Complete name : E:Video111Lucky.Day.2019.BDREMUX.1080p.seleZen.mkv
Format : Matroska
Format version : Version 4
File size : 19.3 GiB
Duration : 1 h 39 min
Overall bit rate mode : Variable
Overall bit rate : 27.9 Mb/s
Movie name : Lucky Day 2019 from селезень
Encoded date : UTC 2020-05-03 22:50:18
Writing application : mkvmerge v40.0.0 ('Old Town Road + Pony') 64-bit
Writing library : libebml v1.3.9 + libmatroska v1.5.2

Video
ID : 1
Format : AVC
Format/Info : Advanced Video Codec
Format profile : High@L4.1
Format settings : CABAC / 4 Ref Frames
Format settings, CABAC : Yes
Format settings, Reference : 4 frames
Codec ID : V_MPEG4/ISO/AVC
Duration : 1 h 39 min
Bit rate mode : Variable
Bit rate : 24.0 Mb/s
Maximum bit rate : 37.0 Mb/s
Width : 1 920 pixels
Height : 1 080 pixels
Display aspect ratio : 16:9
Frame rate mode : Constant
Frame rate : 23.976 (24000/1001) FPS
Color space : YUV
Chroma subsampling : 4:2:0
Bit depth : 8 bits
Scan type : Progressive
Bits/(Pixel*Frame) : 0.483
Stream size : 16.7 GiB (86%)
Language : English
Default : Yes
Forced : No

Audio #1
ID : 2
Format : AC-3
Format/Info : Audio Coding 3
Commercial name : Dolby Digital
Codec ID : A_AC3
Duration : 1 h 39 min
Bit rate mode : Constant
Bit rate : 448 kb/s
Channel(s) : 6 channels
Channel layout : L R C LFE Ls Rs
Sampling rate : 48.0 kHz
Frame rate : 31.250 FPS (1536 SPF)
Compression mode : Lossy
Stream size : 318 MiB (2%)
Title : AVO [Chadov]
Language : Russian
Service kind : Complete Main
Default : Yes
Forced : Yes

Audio #2
ID : 3
Format : DTS XLL
Format/Info : Digital Theater Systems
Commercial name : DTS-HD Master Audio
Codec ID : A_DTS
Duration : 1 h 39 min
Bit rate mode : Variable
Bit rate : 3 426 kb/s
Channel(s) : 6 channels
Channel layout : C L R Ls Rs LFE
Sampling rate : 48.0 kHz
Frame rate : 93.750 FPS (512 SPF)
Bit depth : 24 bits
Compression mode : Lossless
Stream size : 2.37 GiB (12%)
Title : Original
Language : English
Default : No
Forced : No

Text #1
ID : 4
Format : UTF-8
Codec ID : S_TEXT/UTF8
Codec ID/Info : UTF-8 Plain Text
Duration : 1 h 37 min
Bit rate : 58 b/s
Count of elements : 1332
Stream size : 41.5 KiB (0%)
Title : Full
Language : English
Default : No
Forced : No

Text #2
ID : 5
Format : UTF-8
Codec ID : S_TEXT/UTF8
Codec ID/Info : UTF-8 Plain Text
Duration : 1 h 37 min
Bit rate : 62 b/s
Count of elements : 1458
Stream size : 44.7 KiB (0%)
Title : SDH
Language : English
Default : No
Forced : No

Menu
00:00:00.000 : en:Chapter 1
00:06:02.070 : en:Chapter 2
00:10:49.649 : en:Chapter 3
00:18:16.846 : en:Chapter 4
00:23:41.837 : en:Chapter 5
00:30:44.551 : en:Chapter 6
00:37:38.131 : en:Chapter 7
00:43:59.554 : en:Chapter 8
00:48:35.412 : en:Chapter 9
00:53:35.337 : en:Chapter 10
01:00:05.519 : en:Chapter 11
01:07:10.443 : en:Chapter 12
01:11:08.222 : en:Chapter 13
01:17:25.140 : en:Chapter 14
01:24:48.583 : en:Chapter 15
01:29:50.594 : en:Chapter 16

pb.wtf



Скачать Киллер по вызову через торрент https://img12.lostpic.net/2020/05/04/7a382ad381d9e6b1405cb24aaa6337d3.jpg Скачать фильм Киллер по вызову через торрент бесплантно в хорошем качестве Описание: В первый же день после освобождения из тюрьмы взломщик сейфов Ред и его подруга становятся мишенью киллера. Сея вокруг себя хаос, ... 10 10 4
Торрент: Зарегистрирован [2020-05-05 13:46] · скачан: 70 раз
Статус: √ проверено
Размер: 19.34 GB
Как cкачать? Как скачать Киллер по вызову через торрент | qTorrent

% Раздел Тема Автор DL S | L
Фильмы 2019-2020 [DVDrip, WEB-DLRip, HDrip] (DUB, MVO) [ 747 MB ] Киллер по вызову / Прушный денек / Lucky Day [2019 HDRip] bober100 Скачать
3 | 0
Фильмы 2019-2020 [DVDrip, WEB-DLRip, HDrip] (DUB, MVO) [ 1.41 GB ] Киллер по вызову / Прушный денек / Lucky Day [2019 BDRip-AVC] bober100 Скачать
5 | 0
Фильмы 2019-2020 [DVDrip, WEB-DLRip, HDrip] (DUB, MVO) [ 1.46 GB ] Киллер по вызову / Прушный денек / Lucky Day [2019 BDRip] bober100 Скачать
5 | 0
Фильмы (Blu-ray, BD-Remux, HDDVD) [ 19.3 GB ] Киллер по вызову / Прушный денек / Lucky Day [2019 BD Remux 1080p] bober100 Скачать
2 | 0
Фильмы [HD 720p, 1080p] (Хороший звук DUB, MVO) [ 4.04 GB ] Киллер по вызову / Прушный денек / Lucky Day [2019 BDRip 720p] bober100 Скачать
5 | 0
Фильмы [HD 720p, 1080p] (Хороший звук DUB, MVO) [ 10.87 GB ] Киллер по вызову / Прушный денек / Lucky Day [2019 BDRip 1080p] bober100 Скачать
3 | 0
Фильмы 2019-2020 [DVDrip, WEB-DLRip, HDrip] (DUB, MVO) [ 1.42 GB ] Киллер по вызову / Lucky Day [2019 BDRip] - Twi7ter Скачать
28 | 5

28-11-2019 20:33  

Отключить всю рекламу на сайте

    Дорогой пользователь! Огромная просьба, поблагодарите релизера, оцените раздачу и оставьте свои комментарий, если Вы скачали Киллер по вызову через торрент бесплатно! Внесите свою лепту в развитие PiratBit!
    Комментировать посты могут только пользователи прошедшие не сложную регистрацию
    Показать сообщения:    

    Киллер по вызову через торрент
    Скачать бесплатно Киллер по вызову
    Киллер по вызову скачать торрент
    Киллер по вызову смотреть онлайн
    Cкачать фильм Киллер по вызову бесплатно
    Киллер по вызову скачать торрент в хорошем качестве
    Киллер по вызову смотреть онлайн бесплатно в хорошем качестве


    Вы не можете начинать темы
    Вы не можете отвечать на сообщения
    Вы не можете редактировать свои сообщения
    Вы не можете удалять свои сообщения
    Вы не можете голосовать в опросах
    Вы не можете прикреплять файлы к сообщениям
    Вы можете скачивать файлы