Всегда рабочее зеркало без VPN и Proxy просто перед .vidak.icu напиши любое слово или цифру, Пример http://hx4i.vidak.icu

MVO

2 сезон

1 сезон

1

1 сезон

iTunes

2 сезон

13

1 сезон

Распродажа

pack

Рекомендуем

Пиратка

30

ВАЖНО

RePack

MK11

RePack

jed

RePack

fifa19

RePack

RDR2

RePack

NEED FOR SPEED™ PAYBACK

Кинопоиск HD

6 сезон

 Острые козырьки 6 сезон

Все сериалы

все сериалы на PB.wtf

RePack

FAR CRY 5

Anonymous, нам критически не хватает 5601 руб. на оплату серверов и переферии за Апрель, помоги нам пожалуйста, вся надежда только на тебя. В благодарность мы отключим тебе всю рекламу на сайте!

×
  
Magnet ссылка

Цвет из иных миров / Color Out of Space (Ричард Стэнли) [2019, Ужасы, фантастика, BD Remux 1080p] [GER Transfer] DUB [iTunes] +AVO [М. Яроцкий (Kyberpunk)] pb.wtf

Цвет из иных миров через торрент pb.wtf

Размер: 32.65 GB | Добавлен: 2 года назад | Торрент скачан:35 раз
Смотреть онлайн Цвет из иных миров | Скачать    Ребята, помогите собрать деньги на оплату серверов!!!

05-05-2020 14:04 Цвет из иных миров Скачать торрент  

Цвет из иных миров | Color Out of Space
Год выпуска: 2019
Страна: Португалия, США, Малайзия
Студия: SpectreVision, ACE Pictures Entertainment, BRO Cinema
Жанр: Ужасы, фантастика
Продолжительность: 01:50:10
Перевод:
#1: Дублированный | iTunes
#2: Авторский | Михаил Яроцкий (kyberpunk)
Субтитры: Русские (Forced, full), английские

Режиссер: Ричард Стэнли

rating

В ролях: Николас Кейдж, Джоэли Ричардсон, Мадлен Артур, Эллиот Найт, Томми Чонг, Брендан Мейер, Джулиан Хиллиард, Джош С. Уоллер, К’Орианка Килчер, Мелисса Нирман и др.

Описание: Фермер Нэйтан Гарднер с женой и тремя детьми живёт в отдалении от цивилизации. Однажды рядом с его домом падает метеорит, на следующий же день исчезает, и теперь вокруг места падения разрастаются необычные цветы, а телевидение и мобильная связь работают с помехами. Приехавший проверить местную воду гидролог уверен, что пить её не стоит, но члены семьи Гарднер не придают этому особого значения и вскоре начинают очень странно себя вести.

Качество: BD Remux 1080p | GER Transfer
Формат: MKV

Видео: MPEG-4 AVC, 1920x1080, 35.5 Mbit/s, 23.976 fps
Аудио #01: 48 kHz, AC3, 5.1, 384 Kbps | iTunes | RUS |
Аудио #02: 48 kHz, AC3, 5.1, 640 Kbps | kyberpunk | RUS |
Аудио #03: 48 kHz, DTS-HD MA, 5.1, 3903 Kbps | kyberpunk | RUS |
Аудио #04: 48 kHz, DTS-HD MA, 5.1, 1988 Kbps | Оригинал | ENG |
скриншот  скриншот  скриншот  скриншот  скриншот  

General
Unique ID : 320265853998746735470194434061575612638 (0xF0F0F5B7F305DA3A9D0C06780D6B68DE)
Complete name : F:Color.Out.of.Space.2019.D.AVO.BDREMUX.1080p.seleZen.mkv
Format : Matroska
Format version : Version 4
File size : 32.7 GiB
Duration : 1 h 50 min
Overall bit rate mode : Variable
Overall bit rate : 42.4 Mb/s
Movie name : Color Out of Space 2019 from селезень
Encoded date : UTC 2020-05-04 23:37:37
Writing application : mkvmerge v46.0.0 ('No Deeper Escape') 64-bit
Writing library : libebml v1.3.10 + libmatroska v1.5.2

Video
ID : 1
Format : AVC
Format/Info : Advanced Video Codec
Format profile : High@L4.1
Format settings : CABAC / 3 Ref Frames
Format settings, CABAC : Yes
Format settings, Reference : 3 frames
Codec ID : V_MPEG4/ISO/AVC
Duration : 1 h 50 min
Bit rate mode : Variable
Bit rate : 35.5 Mb/s
Maximum bit rate : 37.0 Mb/s
Width : 1 920 pixels
Height : 1 080 pixels
Display aspect ratio : 16:9
Frame rate mode : Constant
Frame rate : 23.976 (24000/1001) FPS
Standard : NTSC
Color space : YUV
Chroma subsampling : 4:2:0
Bit depth : 8 bits
Scan type : Progressive
Bits/(Pixel*Frame) : 0.714
Stream size : 27.3 GiB (84%)
Writing library : x264pro - Adobe CS Exporter Plug-in
Encoding settings : cabac=1 / ref=4 / deblock=1:-2:-2 / analyse=0x3:0x113 / me=umh / subme=9 / psy=1 / psy_rd=1.00:0.25 / mixed_ref=1 / me_range=16 / chroma_me=1 / trellis=1 / 8x8dct=1 / cqm=0 / deadzone=6,6 / fast_pskip=1 / chroma_qp_offset=-4 / threads=16 / lookahead_threads=2 / sliced_threads=0 / slices=4 / nr=0 / decimate=0 / interlaced=0 / bluray_compat=1 / constrained_intra=0 / bframes=3 / b_pyramid=1 / b_adapt=2 / b_bias=0 / direct=3 / weightb=1 / open_gop=0 / weightp=1 / keyint=24 / keyint_min=1 / scenecut=40 / intra_refresh=0 / rc_lookahead=24 / rc=crf / mbtree=1 / crf=1.0 / qcomp=0.80 / qpmin=0 / qpmax=69 / qpstep=4 / vbv_maxrate=37000 / vbv_bufsize=30000 / crf_max=0.0 / nal_hrd=vbr / ip_ratio=1.10 / aq=1:0.50
Language : German
Default : Yes
Forced : No
Color range : Limited
Color primaries : BT.709
Transfer characteristics : BT.709
Matrix coefficients : BT.709

Audio #1
ID : 2
Format : AC-3
Format/Info : Audio Coding 3
Commercial name : Dolby Digital
Codec ID : A_AC3
Duration : 1 h 50 min
Bit rate mode : Constant
Bit rate : 384 kb/s
Channel(s) : 6 channels
Channel layout : L R C LFE Ls Rs
Sampling rate : 48.0 kHz
Frame rate : 31.250 FPS (1536 SPF)
Compression mode : Lossy
Stream size : 303 MiB (1%)
Title : Dubbing [iTunes]
Language : Russian
Service kind : Complete Main
Default : Yes
Forced : Yes

Audio #2
ID : 3
Format : AC-3
Format/Info : Audio Coding 3
Commercial name : Dolby Digital
Codec ID : A_AC3
Duration : 1 h 50 min
Bit rate mode : Constant
Bit rate : 640 kb/s
Channel(s) : 6 channels
Channel layout : L R C LFE Ls Rs
Sampling rate : 48.0 kHz
Frame rate : 31.250 FPS (1536 SPF)
Compression mode : Lossy
Stream size : 504 MiB (2%)
Title : AVO [kyberpunk]
Language : Russian
Service kind : Complete Main
Default : No
Forced : No

Audio #3
ID : 4
Format : DTS XLL
Format/Info : Digital Theater Systems
Commercial name : DTS-HD Master Audio
Codec ID : A_DTS
Duration : 1 h 50 min
Bit rate mode : Variable
Bit rate : 3 903 kb/s
Channel(s) : 6 channels
Channel layout : C L R Ls Rs LFE
Sampling rate : 48.0 kHz
Frame rate : 93.750 FPS (512 SPF)
Bit depth : 24 bits
Compression mode : Lossless
Stream size : 3.00 GiB (9%)
Title : AVO [kyberpunk]
Language : Russian
Default : No
Forced : No

Audio #4
ID : 5
Format : DTS XLL
Format/Info : Digital Theater Systems
Commercial name : DTS-HD Master Audio
Codec ID : A_DTS
Duration : 1 h 50 min
Bit rate mode : Variable
Bit rate : 1 988 kb/s
Channel(s) : 6 channels
Channel layout : C L R Ls Rs LFE
Sampling rate : 48.0 kHz
Frame rate : 93.750 FPS (512 SPF)
Bit depth : 16 bits
Compression mode : Lossless
Stream size : 1.53 GiB (5%)
Title : Orig.
Language : English
Default : No
Forced : No

Text #1
ID : 6
Format : UTF-8
Codec ID : S_TEXT/UTF8
Codec ID/Info : UTF-8 Plain Text
Duration : 1 h 2 min
Bit rate : 0 b/s
Count of elements : 8
Stream size : 400 Bytes (0%)
Title : Forced
Language : Russian
Default : Yes
Forced : Yes

Text #2
ID : 7
Format : UTF-8
Codec ID : S_TEXT/UTF8
Codec ID/Info : UTF-8 Plain Text
Duration : 1 h 45 min
Bit rate : 67 b/s
Count of elements : 1212
Stream size : 52.1 KiB (0%)
Title : Full [Dark_Alice]
Language : Russian
Default : No
Forced : No

Text #3
ID : 8
Format : UTF-8
Codec ID : S_TEXT/UTF8
Codec ID/Info : UTF-8 Plain Text
Duration : 1 h 44 min
Bit rate : 45 b/s
Count of elements : 1234
Stream size : 35.2 KiB (0%)
Title : Full
Language : English
Default : No
Forced : No

Menu
00:00:00.000 : de:
00:06:16.793 : de:
00:15:40.523 : de:
00:21:33.709 : de:
00:27:30.899 : de:
00:33:57.535 : de:
00:43:32.443 : de:
00:50:30.152 : de:
01:00:25.789 : de:
01:10:52.498 : de:
01:16:39.762 : de:
01:23:24.833 : de:
01:28:00.567 : de:
01:35:46.908 : de:
01:42:37.068 : de:
01:46:30.801 : de:

pb.wtf



Скачать Цвет из иных миров через торрент https://i111.fastpic.ru/big/2020/0505/c1/6fc42a87e448522b56a82a6088641bc1.jpg Скачать, смотреть онлайн Цвет из иных миров бесплантно в хорошем качестве Описание: Фермер Нэйтан Гарднер с женой и тремя детьми живёт в отдалении от цивилизации. Однажды рядом с его домом падает метеорит, на ... 10 10 5
Торрент: Зарегистрирован [2020-05-05 14:04] · скачан: 35 раз
Статус: √ проверено
Размер: 32.65 GB
Как cкачать? Как скачать Цвет из иных миров через торрент | UTorrent

% Раздел Тема Автор DL S | L
Ultra HD (UHD: 2K, 4K, 8K) — видео сверхвысокой чёткости [ 49.31 GB ] Цвет из иных миров / Color Out of Space [2019 UHD BDRemux 2160p ] bober100 Скачать
1 | 0
Фильмы 2019-2020 [DVDrip, WEB-DLRip, HDrip] (DUB, MVO) [ 1.41 GB ] Цвет из иных миров / Color Out of Space [2019 BDRip] - Twi7ter Скачать
11 | 2
Фильмы [HD 720p, 1080p] (Хороший звук DUB, MVO) [ 13.87 GB ] Цвет из иных миров / Color Out of Space [2019 BDRip 1080p] [GER Transfer] +AVO [М. Яроцкий ] bober100 Скачать
1 | 0
Фильмы 2019-2020 [DVDrip, WEB-DLRip, HDrip] (DUB, MVO) [ 1.41 GB ] Цвет из иных миров / Color Out of Space [2019 BDRip] bober100 Скачать
2 | 0
Фильмы с авторской озвучкой [ 1.46 GB ] Цвет из иных миров / Color Out of Space [2019 BDRip] AVO [Михаил Яроцкий] Twi7ter Скачать
2 | 1
Фильмы 2019-2020 [DVDrip, WEB-DLRip, HDrip] (DUB, MVO) [ 746 MB ] Цвет из иных миров / Color Out of Space [2019 HDRip] bober100 Скачать
1 | 0
Фильмы [HD 720p, 1080p] (Хороший звук DUB, MVO) [ 4.38 GB ] Цвет из иных миров / Color Out of Space [2019 BDRip 720p] bober100 Скачать
1 | 0

28-11-2019 20:33  

Отключить всю рекламу на сайте

    Дорогой пользователь! Огромная просьба, поблагодарите релизера, оцените раздачу и оставьте свои комментарий, если Вы скачали Цвет из иных миров через торрент бесплатно!
    Комментировать посты могут только пользователи прошедшие не сложную регистрацию
    Показать сообщения:    

    Цвет из иных миров через торрент
    Скачать бесплатно Цвет из иных миров
    Цвет из иных миров скачать торрент
    Цвет из иных миров смотреть онлайн
    Cкачать фильм Цвет из иных миров бесплатно
    Цвет из иных миров скачать торрент в хорошем качестве
    Цвет из иных миров смотреть онлайн бесплатно в хорошем качестве


    Вы не можете начинать темы
    Вы не можете отвечать на сообщения
    Вы не можете редактировать свои сообщения
    Вы не можете удалять свои сообщения
    Вы не можете голосовать в опросах
    Вы не можете прикреплять файлы к сообщениям
    Вы можете скачивать файлы