Ссылка на приватное зеркало нашего сайта всего за 1$. Внимание количество ограничено!!!

2 сезон

iTunes

1 сезон

1

iTunes

iTunes

iTunes

1 сезон

RePack

30

ИГРА 18+

pack

ВАЖНО

!!Акция!!

Alien_RageХит недели

RePack

MK11
pack

Забери бонус

RePack

jed

!!Акция!!

Alien_Rage

RePack

fifa19

RePack

Assassins Creed: Odyssey

RePack

NEED FOR SPEED™ PAYBACK

4 сезон

9 сезон

Бесстыжие 9 сезон

Все сериалы

все сериалы на PB.wtf

RePack

FAR CRY 5
  

Джульбарс / Сезон: 1 / Серии: 1-8 из 8 (Иван Шурховецкий) [2020, Военный, драма, история, WEB-DL 1080p] pb.wtf

Джульбарс через торрент pb.wtf

Раздают: 2 [ 0 KB/s ]
Размер: 14.94 GB | Добавлен: 5 мес. 17 д. назад | Торрент скачан:43 раза
Скачать  

06-05-2020 01:41 Джульбарс Скачать торрент  

Джульбарс
Год выпуска: 2020
Страна: Россия
Выпущено: Продюсерский центр «ГОРАД» при участии "ВВП Альянс"
Жанр: Военный, драма, история
Продолжительность: ~ 00:50:00
Перевод: Не требуется
Субтитры: отсутствуют

Режиссер: Иван Шурховецкий



В ролях: Николай Мачульский, Мария Андреева, Алексей Барабаш, Александр Марушев, Софья Озерова, Борис Зверев, Виталия Корниенко, Вячеслав Субраков

Описание: Август 1941 года. Пограничная школа служебного собаководства оказывается на линии фронта. Вместе с военными под удар попадают и гражданские: врач Кира и ее маленькая дочь Лиза. Командир пограншколы Шевцов понимает, что силы неравны и пытается отправить в тыл Киру, в которую он тайно влюблён, и ее дочь Лизу. За ними в пограншколу приезжает партработник Поляков, он отец Лизы. Но все планы срываются из-за быстрого наступления фашистов. Теперь отряд вынужден уходить с боями. Шевцов спасает Киру, Лизу и Полякова, но пограншкола вынуждена принять неравный бой, чтобы дать время на эвакуацию близлежащего города. Молодые и неопытные пограничники вместе со своими собаками встанут на пути немецких танков. Винтовки и клыки против брони и автоматов.

Качество: WEB-DL 1080p
Формат: MKV

Видео: MPEG-4 AVC, ~ 5106 Кбит/с, 1920x1080, 25 fps
Аудио: 48.0 kHz, AC3 Dolby Digital, 2/0 (L,R) ch, ~ 192 kbps
скриншот  скриншот  скриншот  скриншот  

Общее
Уникальный идентификатор : 195742636391051931261856967906189612017 (0x9342A9155736E7248D9F9607E42B93F1)
Полное имя : C:\Dzhulbars.2017.WEB-DL.(1080p).Getty\Dzhulbars.e01.2017.WEB-DL.(1080p).Getty.mkv
Формат : Matroska
Версия формата : Version 4
Размер файла : 1,90 Гбайт
Продолжительность : 51 м. 15 с.
Общий поток : 5300 Кбит/сек
Название фильма : Dzhulbars.e01.2017.WEB-DL.(1080p).Getty
Дата кодирования : UTC 2020-04-29 23:40:43
Программа кодирования : mkvmerge v7.8.0 ('River Man') 32bit built on Mar 27 2015 16:18:02
Библиотека кодирования : libebml v1.3.1 + libmatroska v1.4.2

Видео
Идентификатор : 1
Формат : AVC
Формат/Информация : Advanced Video Codec
Профиль формата : High@L4
Настройки формата : CABAC / 4 Ref Frames
Параметр CABAC формата : Да
Параметр RefFrames формата : 4 кадра
Идентификатор кодека : V_MPEG4/ISO/AVC
Продолжительность : 51 м. 15 с.
Битрейт : 5106 Кбит/сек
Ширина : 1920 пикселей
Высота : 1080 пикселей
Соотношение сторон : 16:9
Режим частоты кадров : Постоянный
Частота кадров : 25,000 кадров/сек
Цветовое пространство : YUV
Субдискретизация насыщенности : 4:2:0
Битовая глубина : 8 бит
Тип развёртки : Прогрессивная
Бит/(Пиксели*Кадры) : 0.098
Размер потока : 1,83 Гбайт (96%)
Default : Да
Forced : Нет

Аудио
Идентификатор : 2
Формат : AC-3
Формат/Информация : Audio Coding 3
Коммерческое название : Dolby Digital
Идентификатор кодека : A_AC3
Продолжительность : 51 м. 15 с.
Вид битрейта : Постоянный
Битрейт : 192 Кбит/сек
Каналы : 2 канала
ChannelLayout : L R
Частота : 48,0 КГц
Частота кадров : 31,250 кадров/сек (1536 SPF)
Битовая глубина : 16 бит
Метод сжатия : С потерями
Размер потока : 70,4 Мбайт (4%)
ServiceKind/String : Complete Main
Default : Да
Forced : Нет

pb.wtf



Скачать Джульбарс через торрент https://img12.lostpic.net/2020/04/27/95ea500c8fa43d693ee062505750212f.jpg Скачать фильм Джульбарс через торрент бесплантно в хорошем качестве Описание: Август 1941 года. Пограничная школа служебного собаководства оказывается на линии фронта. Вместе с военными под удар попадают и ... 7.8 10 4
Торрент: Зарегистрирован [2020-05-06 01:41] · скачан: 43 раз
Статус: √ проверено
Размер: 14.94 GB
Как cкачать? Как скачать Джульбарс через торрент | qTorrent

% Раздел Тема Автор DL S | L
Наши сериалы [ 5.08 GB ] Джульбарс / Сезон: 1 / Серии: 1-8 из 8 [2020 Военный история WEB-DLRip] bober100 Скачать
3 | 0
Наши сериалы [ 7.95 GB ] Джульбарс / Сезон: 1 / Серии: 1-8 из 8 [2020 Военный история WEB-DL 720p] bober100 Скачать
2 | 0
Наши сериалы [ 6.07 GB ] Джульбарс / Сезон: 1 / Серии: 1-8 из 8 [2020 Военный история HDTVRip-AVC] bober100 Скачать
1 | 0
Наши сериалы [ 10.21 GB ] Джульбарс / Сезон: 1 / Серии: 1-8 из 8 [2020 Военный история HDTVRip 720p] bober100 Скачать
1 | 0
Наши сериалы [ 4.98 GB ] Джульбарс / Сезон: 1 / Серии: 1-8 из 8 [2020 Военный история HDTVRip] bober100 Скачать
1 | 0
Наши сериалы [ 18.9 GB ] Джульбарс / Сезон: 1 / Серии: 1-8 из 8 [2020 Военный история HDTV 1080i] bober100 Скачать
1 | 0
Наши сериалы [ 5.12 GB ] Джульбарс / Сезон: 1 / Серии: 1-8 из 8 [2020 Военный история SATRip] bober100 Скачать
1 | 0

28-11-2019 20:33  

Отключить всю рекламу на сайте

    Дорогой пользователь! Огромная просьба, поблагодарите релизера, оцените раздачу и оставьте свои комментарий, если Вы скачали Джульбарс через торрент бесплатно! Внесите свою лепту в развитие PiratBit!
    Комментировать посты могут только пользователи прошедшие не сложную регистрацию
    Показать сообщения:    

    Джульбарс через торрент
    Скачать бесплатно Джульбарс
    Джульбарс скачать торрент
    Джульбарс смотреть онлайн
    Cкачать фильм Джульбарс бесплатно
    Джульбарс скачать торрент в хорошем качестве
    Джульбарс смотреть онлайн бесплатно в хорошем качестве


    Вы не можете начинать темы
    Вы не можете отвечать на сообщения
    Вы не можете редактировать свои сообщения
    Вы не можете удалять свои сообщения
    Вы не можете голосовать в опросах
    Вы не можете прикреплять файлы к сообщениям
    Вы можете скачивать файлы