Ссылка на приватное зеркало нашего сайта всего за 1$. Внимание количество ограничено!!!

2 сезон

iTunes

1 сезон

1

2 сезон

2 сезон

iTunes

1 сезон

RePack

30

Ultimate

ВАЖНО

ИГРА 18+

pack

RePack

MK11
pack

Забери бонус

RePack

jed

!!Акция!!

Alien_Rage

RePack

fifa19

RePack

Assassins Creed: Odyssey

RePack

NEED FOR SPEED™ PAYBACK

4 сезон

9 сезон

Бесстыжие 9 сезон

Все сериалы

все сериалы на PB.wtf

RePack

FAR CRY 5
  

Маньяк-полицейский 1, 2, 3 / Maniac Cop 1, 2, 3 (Уильям Лустиг, Джоэль Сойзон)[1988-1993, США, ужасы, боевик, криминал, BDRip 720p / 60fps , AVO] от R.G. HD-Films) pb.wtf

Маньяк-полицейский 1, 2, 3 через торрент pb.wtf

Качают: 1 [ 0 KB/s ]
Размер: 9.55 GB | Добавлен: 6 мес. назад | Торрент скачан:11 раз
Скачать  

06-05-2020 10:01 Маньяк-полицейский 1, 2, 3 Скачать торрент  

Маньяк-полицейский 1, 2, 3 / Maniac Cop 1, 2, 3
Маньяк-полицейский / Maniac Cop
Год выпуска: : 1988
Страна: : США
Жанр: : ужасы, боевик, криминал, детектив
Продолжительность: 01:25:08
Перевод: Авторский (одноголосый закадровый)
Субтитры: English

Режиссер: Уильям Лустиг

Бюджет: $1 100 000
Премьера в мире: 13 мая 1988

rating

В ролях: Том Аткинс, Брюс Кэмпбелл, Лаурен Лэндон, Ричард Раундтри, Уильям Смит, Роберт З’Дар, Шири Норт, Нина Арвесен, Ник Барбаро, Лу Бонаки


Сюжет фильма: Нью-Йорк в ужасе! Город охватила серия жестоких убийств. Все свидетели утверждают, что их совершил некто в форме полицейского. Управление полиции поначалу не верит в это, и только лейтенант Френк МакКрей понимает, о ком идет речь.

Качество видео: BDRip 720p / 60 FPS
Формат: MKV
Видео кодек: H.264
Аудио кодек: AC3
Видео : x264, 1280 x 696 ( 1,85:1 ), 5626 kbps, 60,000 fps, ( 0.105 bpp)
Аудио : Русский, AC-3, 48.0 KHz, 6 ch, 384 Kbps ( AVO А.Михалёв )
Релиз от:

скриншот   скриншот   скриншот   скриншот   скриншот   скриншот  Автор рипа: slaventi-69
Общее
Уникальный идентификатор : 229201398728784061750200998115233084283 (0xAC6E956E10D656BD9AAFAC7D4E15B37B)
Полное имя : F:\Maniac Cop 1, 2, 3\Maniac.Cop.(1988).BDRip.720p.(60 Fps).mkv
Формат : Matroska
Версия формата : Version 4
Размер файла : 3,57 Гбайт
Продолжительность : 1 ч. 25 м.
Общий поток : 6014 Кбит/сек
Название фильма : Маньяк-полицейский / Maniac Cop (1988) BDRip 720p (60 Fps)
Дата кодирования : UTC 2020-05-03 11:13:59
Программа кодирования : mkvmerge v9.7.1 ('Pandemonium') 64bit
Библиотека кодирования : libebml v1.3.4 + libmatroska v1.4.5

Видео
Идентификатор : 1
Формат : AVC
Формат/Информация : Advanced Video Codec
Профиль формата : High@L4.1
Настройки формата : CABAC / 8 Ref Frames
Параметр CABAC формата : Да
Параметр RefFrames формата : 8 кадров
Идентификатор кодека : V_MPEG4/ISO/AVC
Продолжительность : 1 ч. 25 м.
Битрейт : 5626 Кбит/сек
Ширина : 1280 пикселей
Высота : 696 пикселей
Соотношение сторон : 1,85:1
Режим частоты кадров : Постоянный
Частота кадров : 60,000 кадров/сек
Цветовое пространство : YUV
Субдискретизация насыщенности : 4:2:0
Битовая глубина : 8 бит
Тип развёртки : Прогрессивная
Бит/(Пиксели*Кадры) : 0.105
Размер потока : 3,34 Гбайт (94%)
Заголовок : slaventi-69 ( R.G. HD-Films | 60 fps )
Библиотека кодирования : x264 core 130 r2273 b3065e6
Настройки программы : cabac=1 / ref=8 / deblock=1:-1:-1 / analyse=0x3:0x113 / me=umh / subme=9 / psy=1 / psy_rd=1.00:0.00 / mixed_ref=1 / me_range=24 / chroma_me=1 / trellis=2 / 8x8dct=1 / cqm=0 / deadzone=21,11 / fast_pskip=1 / chroma_qp_offset=-2 / threads=3 / lookahead_threads=1 / sliced_threads=0 / nr=0 / decimate=1 / interlaced=0 / bluray_compat=0 / constrained_intra=0 / bframes=5 / b_pyramid=2 / b_adapt=2 / b_bias=0 / direct=2 / weightb=1 / open_gop=0 / weightp=2 / keyint=250 / keyint_min=25 / scenecut=40 / intra_refresh=0 / rc=crf / mbtree=0 / crf=18.7 / qcomp=0.60 / qpmin=0 / qpmax=69 / qpstep=4 / ip_ratio=1.40 / pb_ratio=1.30 / aq=1:1.00
Язык : English
Default : Да
Forced : Нет

Аудио
Идентификатор : 2
Формат : AC-3
Формат/Информация : Audio Coding 3
Коммерческое название : Dolby Digital
Идентификатор кодека : A_AC3
Продолжительность : 1 ч. 25 м.
Вид битрейта : Постоянный
Битрейт : 384 Кбит/сек
Каналы : 6 каналов
Channel layout : L R C LFE Ls Rs
Частота : 48,0 КГц
Частота кадров : 31,250 кадров/сек (1536 SPF)
Битовая глубина : 16 бит
Метод сжатия : С потерями
Размер потока : 234 Мбайт (6%)
Заголовок : AVO А.Михалёв
Язык : Russian
ServiceKind/String : Complete Main
Default : Да
Forced : Нет

Текст
Идентификатор : 3
Формат : UTF-8
Идентификатор кодека : S_TEXT/UTF8
Идентификатор кодека/Информация : UTF-8 Plain Text
Продолжительность : 1 ч. 19 м.
Битрейт : 49 бит/сек
ElementCount : 777
Размер потока : 28,9 Кбайт (0%)
Язык : English
Default : Нет
Forced : Нет

Меню
00:00:00.000 : en:Opening
00:03:43.557 : en:Mugged
00:08:55.034 : en:Don't Drink and Drive
00:17:19.580 : en:Cop Killer
00:19:30.127 : en:Suspicion
00:24:22.670 : en:Caught in the Act
00:29:41.446 : en:Arrested
00:34:38.034 : en:Undercover Viсе
00:39:44.882 : en:Precinct Secrets
00:47:51.994 : en:Investigating Cordell
00:49:43.772 : en:Brutal Fight
00:53:53.605 : en:Interrogation
00:59:40.118 : en:Prison Visit
01:05:42.438 : en:St/ Patrick's Day Parade
01:09:36.422 : en:Police Station Massacre
01:13:34.368 : en:The Chase
01:17:28.102 : en:Showdown
01:21:54.076 : en:Credits

Просьба к переливающим на другие сайты, в оформлении указывайте пожалуйста авторство группы R.G. HD-Films
Маньяк-полицейский 2 / Maniac Cop 2
Год выпуска: : 1990
Страна: : США
Жанр: : ужасы, боевик, криминал, детектив
Продолжительность: 01:27:22
Перевод: Авторский (одноголосый закадровый)
Субтитры: Russian, English

Режиссер: Уильям Лустиг

Бюджет: $4 000 000
Премьера в мире: 18 июля 1990

rating

В ролях: Роберт Дави, Клаудия Кристиан, Майкл Лернер, Брюс Кэмпбелл, Лаурен Лэндон, Роберт З’Дар, Кларенс Уильямс III, Лео Росси, Лу Бонаки, Паула Трикки


Сюжет фильма: Все думают, что Мэт Корделл утонул в пучинах реки, куда он упал в полицейском грузовике, но они жестоко ошибаются. Мэтт сам назначил себя судьей, жюри присяжных и палачом. Совсем недавно он был героем, лучшим полицейским, но его приверженность к справедливости добавило ему врагов, властных и безжалостных, могущественных и непримиримых. Они отправили его в тюрьму Синг-Синг прямо в лапы злых преступников, которых он сам недавно засадил за решетку. Но теперь их обман и коррупция создали монстра, которого не может контролировать никто. Восставший из мертвых маньяк-полицейский снова на посту и единственный билет, который он выписывает-это билет в морг…

Качество видео: BDRip 720p / 60 FPS
Формат: MKV
Видео кодек: H.264
Аудио кодек: AC3
Видео : x264, 1280 x 696 ( 1,85:1 ), 5221 kbps, 60,000 fps, ( 0.098 bpp)
Аудио : Русский, AC-3, 48.0 KHz, 2 ch, 192 Kbps ( AVO В.Горчаков )
Релиз от:

скриншот   скриншот   скриншот   скриншот   скриншот   скриншот  Автор рипа: slaventi-69
x264 [info]: frame I:1749 Avg QP:18.82 size: 78684
x264 [info]: frame P:77520 Avg QP:19.87 size: 23765
x264 [info]: frame B:234972 Avg QP:22.03 size: 6121
x264 [info]: consecutive B-frames: 2.5% 4.3% 10.8% 14.3% 62.3% 5.9%


Общее
Уникальный идентификатор : 82951151361208787323454575432461105477 (0x3E67CF85A17F99A1AC5C8751D882B945)
Полное имя : F:\Maniac Cop 1, 2, 3\Maniac.Cop.2.(1990).BDRip.720p.(60 Fps).mkv
Формат : Matroska
Версия формата : Version 4
Размер файла : 3,30 Гбайт
Продолжительность : 1 ч. 27 м.
Общий поток : 5417 Кбит/сек
Название фильма : Маньяк-полицейский 2 / Maniac Cop 2 (1990) BDRip 720p (60 Fps)
Дата кодирования : UTC 2020-05-05 10:36:48
Программа кодирования : mkvmerge v42.0.0 ('Overtime') 64-bit
Библиотека кодирования : libebml v1.3.10 + libmatroska v1.5.2

Видео
Идентификатор : 1
Формат : AVC
Формат/Информация : Advanced Video Codec
Профиль формата : High@L4.1
Настройки формата : CABAC / 8 Ref Frames
Параметр CABAC формата : Да
Параметр RefFrames формата : 8 кадров
Идентификатор кодека : V_MPEG4/ISO/AVC
Продолжительность : 1 ч. 27 м.
Битрейт : 5221 Кбит/сек
Ширина : 1280 пикселей
Высота : 696 пикселей
Соотношение сторон : 1,85:1
Режим частоты кадров : Постоянный
Частота кадров : 60,000 кадров/сек
Цветовое пространство : YUV
Субдискретизация насыщенности : 4:2:0
Битовая глубина : 8 бит
Тип развёртки : Прогрессивная
Бит/(Пиксели*Кадры) : 0.098
Размер потока : 3,18 Гбайт (96%)
Заголовок : slaventi-69 ( R.G. HD-Films | 60 fps )
Библиотека кодирования : x264 core 130 r2273 b3065e6
Настройки программы : cabac=1 / ref=8 / deblock=1:-1:-1 / analyse=0x3:0x133 / me=umh / subme=9 / psy=1 / psy_rd=1.00:0.00 / mixed_ref=1 / me_range=24 / chroma_me=1 / trellis=2 / 8x8dct=1 / cqm=0 / deadzone=21,11 / fast_pskip=0 / chroma_qp_offset=-2 / threads=6 / lookahead_threads=1 / sliced_threads=0 / nr=0 / decimate=1 / interlaced=0 / bluray_compat=0 / constrained_intra=0 / bframes=5 / b_pyramid=2 / b_adapt=2 / b_bias=0 / direct=3 / weightb=1 / open_gop=0 / weightp=2 / keyint=250 / keyint_min=25 / scenecut=40 / intra_refresh=0 / rc=crf / mbtree=0 / crf=18.8 / qcomp=0.60 / qpmin=0 / qpmax=69 / qpstep=4 / ip_ratio=1.40 / pb_ratio=1.30 / aq=1:1.00
Язык : English
Default : Да
Forced : Нет

Аудио
Идентификатор : 2
Формат : AC-3
Формат/Информация : Audio Coding 3
Коммерческое название : Dolby Digital
Идентификатор кодека : A_AC3
Продолжительность : 1 ч. 27 м.
Вид битрейта : Постоянный
Битрейт : 192 Кбит/сек
Каналы : 2 канала
Channel layout : L R
Частота : 48,0 КГц
Частота кадров : 31,250 кадров/сек (1536 SPF)
Битовая глубина : 16 бит
Метод сжатия : С потерями
Размер потока : 120 Мбайт (4%)
Заголовок : AVO В.Горчаков
Язык : Russian
ServiceKind/String : Complete Main
Default : Да
Forced : Нет

Текст #1
Идентификатор : 3
Формат : UTF-8
Идентификатор кодека : S_TEXT/UTF8
Идентификатор кодека/Информация : UTF-8 Plain Text
Продолжительность : 1 ч. 26 м.
Битрейт : 94 бит/сек
ElementCount : 969
Размер потока : 60,2 Кбайт (0%)
Язык : Russian
Default : Нет
Forced : Нет

Текст #2
Идентификатор : 4
Формат : UTF-8
Идентификатор кодека : S_TEXT/UTF8
Идентификатор кодека/Информация : UTF-8 Plain Text
Продолжительность : 1 ч. 26 м.
Битрейт : 67 бит/сек
ElementCount : 1131
Размер потока : 43,0 Кбайт (0%)
Язык : English
Default : Нет
Forced : Нет

Меню
00:00:00.000 : en:Chapter 01
00:05:42.924 : en:Chapter 02
00:10:52.443 : en:Chapter 03
00:17:27.963 : en:Chapter 04
00:22:51.243 : en:Chapter 05
00:28:11.398 : en:Chapter 06
00:37:30.331 : en:Chapter 07
00:42:21.997 : en:Chapter 08
00:46:21.820 : en:Chapter 09
00:51:00.140 : en:Chapter 10
00:56:42.440 : en:Chapter 11
01:03:04.780 : en:Chapter 12
01:07:35.259 : en:Chapter 13
01:12:50.448 : en:Chapter 14
01:17:00.532 : en:Chapter 15
01:23:21.371 : en:Chapter 16

Просьба к переливающим на другие сайты, в оформлении указывайте пожалуйста авторство группы R.G. HD-Films
Маньяк-полицейский 3: Знак молчания / Maniac Cop 3: Badge of Silence
Год выпуска: : 1993
Страна: : США
Жанр: : ужасы, боевик, криминал, детектив
Продолжительность: 01:24:42
Перевод: Авторский (одноголосый закадровый)
Субтитры: Russian, English

Режиссер: Уильям Лустиг, Джоэль Сойзон

Премьера в мире: 7 июля 1993

rating

В ролях: Том Аткинс, Брюс Кэмпбелл, Лаурен Лэндон, Ричард Раундтри, Уильям Смит, Роберт З’Дар, Шири Норт, Нина Арвесен, Ник Барбаро, Лу Бонаки


Сюжет фильма: Нью-Йорк в ужасе! Город охватила серия жестоких убийств. Все свидетели утверждают, что их совершил некто в форме полицейского. Управление полиции поначалу не верит в это, и только лейтенант Френк МакКрей понимает, о ком идет речь.

Качество видео: BDRip 720p / 60 FPS
Формат: MKV
Видео кодек: H.264
Аудио кодек: AC3
Видео : x264, 1280 x 544 ( 2,35:1 ), 4321 kbps, 60,000 fps, ( 0.103 bpp)
Аудио : Русский, AC-3, 48.0 KHz, 2 ch, 192 Kbps ( AVO А.Гаврилов )
Релиз от:

скриншот   скриншот   скриншот   скриншот   скриншот   скриншот  Автор рипа: slaventi-69
x264 [info]: frame I:1611 Avg QP:15.70 size: 64925
x264 [info]: frame P:71772 Avg QP:16.75 size: 19786
x264 [info]: frame B:231268 Avg QP:18.94 size: 5267
x264 [info]: consecutive B-frames: 1.8% 3.9% 8.8% 9.8% 69.4% 6.4%


Общее
Уникальный идентификатор : 146256799705787300597667693091960105703 (0x6E0808F691F69DFBF20549A937F7AAE7)
Полное имя : F:\Maniac Cop 1, 2, 3\Maniac.Cop.3.Badge.of.Silence.(1993).BDRip.720p.(60 Fps).mkv
Формат : Matroska
Версия формата : Version 4
Размер файла : 2,67 Гбайт
Продолжительность : 1 ч. 24 м.
Общий поток : 4515 Кбит/сек
Название фильма : Маньяк-полицейский 3: Знак молчания / Maniac Cop 3: Badge of Silence (1993) BDRip 720p (60 Fps)
Дата кодирования : UTC 2020-05-05 10:47:21
Программа кодирования : mkvmerge v42.0.0 ('Overtime') 64-bit
Библиотека кодирования : libebml v1.3.10 + libmatroska v1.5.2

Видео
Идентификатор : 1
Формат : AVC
Формат/Информация : Advanced Video Codec
Профиль формата : High@L4.1
Настройки формата : CABAC / 9 Ref Frames
Параметр CABAC формата : Да
Параметр RefFrames формата : 9 кадров
Идентификатор кодека : V_MPEG4/ISO/AVC
Продолжительность : 1 ч. 24 м.
Битрейт : 4321 Кбит/сек
Ширина : 1280 пикселей
Высота : 544 пикселя
Соотношение сторон : 2,35:1
Режим частоты кадров : Постоянный
Частота кадров : 60,000 кадров/сек
Цветовое пространство : YUV
Субдискретизация насыщенности : 4:2:0
Битовая глубина : 8 бит
Тип развёртки : Прогрессивная
Бит/(Пиксели*Кадры) : 0.103
Размер потока : 2,55 Гбайт (96%)
Заголовок : slaventi-69 ( R.G. HD-Films | 60 fps )
Библиотека кодирования : x264 core 130 r2273 b3065e6
Настройки программы : cabac=1 / ref=9 / deblock=1:-1:-1 / analyse=0x3:0x133 / me=umh / subme=9 / psy=1 / psy_rd=1.00:0.00 / mixed_ref=1 / me_range=26 / chroma_me=1 / trellis=2 / 8x8dct=1 / cqm=0 / deadzone=21,11 / fast_pskip=0 / chroma_qp_offset=-2 / threads=4 / lookahead_threads=1 / sliced_threads=0 / nr=0 / decimate=1 / interlaced=0 / bluray_compat=0 / constrained_intra=0 / bframes=5 / b_pyramid=2 / b_adapt=2 / b_bias=0 / direct=3 / weightb=1 / open_gop=0 / weightp=2 / keyint=250 / keyint_min=25 / scenecut=40 / intra_refresh=0 / rc=crf / mbtree=0 / crf=17.5 / qcomp=0.60 / qpmin=0 / qpmax=69 / qpstep=4 / ip_ratio=1.40 / pb_ratio=1.30 / aq=1:1.00
Язык : English
Default : Да
Forced : Нет

Аудио
Идентификатор : 2
Формат : AC-3
Формат/Информация : Audio Coding 3
Коммерческое название : Dolby Digital
Идентификатор кодека : A_AC3
Продолжительность : 1 ч. 24 м.
Вид битрейта : Постоянный
Битрейт : 192 Кбит/сек
Каналы : 2 канала
Channel layout : L R
Частота : 48,0 КГц
Частота кадров : 31,250 кадров/сек (1536 SPF)
Битовая глубина : 16 бит
Метод сжатия : С потерями
Размер потока : 116 Мбайт (4%)
Заголовок : AVO А.Гаврилов
Язык : Russian
ServiceKind/String : Complete Main
Default : Да
Forced : Нет

Текст #1
Идентификатор : 3
Формат : UTF-8
Идентификатор кодека : S_TEXT/UTF8
Идентификатор кодека/Информация : UTF-8 Plain Text
Продолжительность : 1 ч. 24 м.
Битрейт : 66 бит/сек
ElementCount : 656
Размер потока : 41,1 Кбайт (0%)
Заголовок : full
Язык : Russian
Default : Нет
Forced : Нет

Текст #2
Идентификатор : 4
Формат : UTF-8
Идентификатор кодека : S_TEXT/UTF8
Идентификатор кодека/Информация : UTF-8 Plain Text
Продолжительность : 1 ч. 17 м.
Битрейт : 47 бит/сек
ElementCount : 800
Размер потока : 26,8 Кбайт (0%)
Заголовок : full
Язык : English
Default : Нет
Forced : Нет

Меню
00:00:00.000 : :Chapter 01
00:05:00.000 : :Chapter 02
00:10:00.000 : :Chapter 03
00:15:00.000 : :Chapter 04
00:20:00.000 : :Chapter 05
00:25:00.000 : :Chapter 06
00:30:00.000 : :Chapter 07
00:35:00.000 : :Chapter 08
00:40:00.000 : :Chapter 09
00:45:00.000 : :Chapter 10
00:50:00.000 : :Chapter 11
00:55:00.000 : :Chapter 12
01:00:00.000 : :Chapter 13
01:05:00.000 : :Chapter 14
01:10:00.000 : :Chapter 15
01:15:00.000 : :Chapter 16
01:20:00.000 : :Chapter 17

Просьба к переливающим на другие сайты, в оформлении указывайте пожалуйста авторство группы R.G. HD-Films
pb.wtf



Скачать Маньяк-полицейский 1, 2, 3 через торрент https://c.radikal.ru/c01/1906/a3/ab9c685b0eed.jpg Скачать фильм Маньяк-полицейский 1, 2, 3 через торрент бесплантно в хорошем качестве В ролях: Том Аткинс, Брюс Кэмпбелл, Лаурен Лэндон, Ричард Раундтри, Уильям Смит, Роберт З’Дар, Шири Норт, Нина Арвесен, Ник Барбаро, Лу ... 10 10 4
Торрент: Зарегистрирован [2020-05-06 10:01] · скачан: 11 раз
Статус: √ проверено
Размер: 9.55 GB
Как cкачать? Как скачать Маньяк-полицейский 1, 2, 3 через торрент | qTorrent

28-11-2019 20:33  

Отключить всю рекламу на сайте

06-05-2020 10:38 Маньяк-полицейский 1, 2, 3 Скачать торрент  

Эх... Во втором Клаудия Кристиан, мой пэрсик из Вавилона 5.pb.wtf



06-05-2020 17:49 Маньяк-полицейский 1, 2, 3 Скачать торрент  

Спасибо большое за тройку!!! Фильмы, конечно, шикарны, Дэйви и З'Дар и Клава Кристиан это нечто!!! Только что явился с работы а здесь такой сюрприз. Благодарю за такой шикарный подарок!!!pb.wtf



06-05-2020 18:32 Маньяк-полицейский 1, 2, 3 Скачать торрент  

Пожалуйста. Смотрите в удовольствие.pb.wtf



    Дорогой пользователь! Огромная просьба, поблагодарите релизера, оцените раздачу и оставьте свои комментарий, если Вы скачали Маньяк-полицейский 1, 2, 3 через торрент бесплатно! Внесите свою лепту в развитие PiratBit!
    Комментировать посты могут только пользователи прошедшие не сложную регистрацию
    Показать сообщения:    

    Маньяк-полицейский 1, 2, 3 через торрент
    Скачать бесплатно Маньяк-полицейский 1, 2, 3
    Маньяк-полицейский 1, 2, 3 скачать торрент
    Маньяк-полицейский 1, 2, 3 смотреть онлайн
    Cкачать фильм Маньяк-полицейский 1, 2, 3 бесплатно
    Маньяк-полицейский 1, 2, 3 скачать торрент в хорошем качестве
    Маньяк-полицейский 1, 2, 3 смотреть онлайн бесплатно в хорошем качестве


    Вы не можете начинать темы
    Вы не можете отвечать на сообщения
    Вы не можете редактировать свои сообщения
    Вы не можете удалять свои сообщения
    Вы не можете голосовать в опросах
    Вы не можете прикреплять файлы к сообщениям
    Вы можете скачивать файлы