2 сезон

iTunes

1 сезон

1

iTunes

iTunes

iTunes

1 сезон

RePack

30

ИГРА 18+

pack

ВАЖНО

!!Акция!!

Alien_RageХит недели

RePack

MK11
pack

Забери бонус

RePack

jed

!!Акция!!

Alien_Rage

RePack

fifa19

RePack

Assassins Creed: Odyssey

RePack

NEED FOR SPEED™ PAYBACK

4 сезон

9 сезон

Бесстыжие 9 сезон

Все сериалы

все сериалы на PB.wtf

RePack

FAR CRY 5
  

Крепкая броня / Сезон: 1 / Серии: 1-6 из 6 (Юрий Лейзеров) [2020, Военный, драма, HDTVRip 720p] pb.wtf

Крепкая броня через торрент pb.wtf

Раздают: 1 [ 0 KB/s ]
Размер: 7.93 GB | Добавлен: 5 мес. 22 д. назад | Торрент скачан:96 раз
Скачать  

06-05-2020 17:52 Крепкая броня Скачать торрент  

Крепкая броня
Год выпуска: 2020
Страна: Россия
Жанр: Военный, драма
Продолжительность: ~ 00:50:00
Субтитры: отсутствуют

Режиссер: Юрий Лейзеров



В ролях: Константин Белошапка, Дарья Мельникова, Ангелина Стречина, Александр Константинов, Максим Емельянов, Виталий Хаев, Олег Васильков, Алексей Фатеев, Валерий Афанасьев, Владимир Капустин, Николай Ковбас, Иван Лапин, Артём Мельничук, Арсений Семёнов, Олег Кныш, Андрей Пискарёв, Александр Пугачёв (II), Вера Смолина, Алексей Сахаров (II), Владислав Кузнецов, Андрей Харенко, Павел Усачев, Виктор Рябов (II), Дмитрий Калистратов, Кирилл Ермичёв, Иван Семёнов (III), Георгий Тополага, Алексей Жиров, Александр Хованский (II), Елена Доронина (II), Алексей Назаров (II), Александр Дуда, Николай Алипа, Аля Никулина, Сергей Неудачин, Елена Шилова, Елизавета Хмелевская, Дмитрий Сотниченко, Марина Старых

Описание: Василий Русаков с отличием оканчивает Саратовское танковое училище. На дворе грохочет война, но это не мешает Василию влюбиться. И теперь в нем борются боевой командир и безрассудный юнец, и нередко в этом внутреннем споре безрассудный юнец побеждает. Именно такие, как Василий Русаков — где-то совсем еще дети, где-то не по годам мудрые командиры — выведут свои танки на Курскую дугу — крупнейшее танковое сражение Второй мировой войны, и ценою собственных жизней вырвут победу у врага…

Качество: HDTVRip 720p
Формат: MKV

Видео: MPEG-4 AVC, ~ 3500 Кбит/с, 1280x720, 25 fps
Аудио: 48.0 kHz, AC3 Dolby Digital, 2/0 (L,R) ch, ~ 192 kbps
скриншот  скриншот  скриншот  скриншот  

Общее
Уникальный идентификатор : 235394224089290455301756243981445529753 (0xB117474B2E97F11F9B3B6C387E8A8099)
Полное имя : D:Krepkaja bronja.HDTVRip.(720p).GeneralFilm1.Krepkaja bronja.HDTVRip.(720p).GeneralFilm.mkv
Формат : Matroska
Версия формата : Version 2
Размер файла : 1,36 Гбайт
Продолжительность : 52 м.
Общий поток : 3693 Кбит/сек
Дата кодирования : UTC 2020-05-06 17:15:53
Программа кодирования : mkvmerge v7.8.0 ('River Man') 32bit built on Apr 3 2015 12:11:22
Библиотека кодирования : libebml v1.3.1 + libmatroska v1.4.2

Видео
Идентификатор : 1
Формат : AVC
Формат/Информация : Advanced Video Codec
Профиль формата : High@L4.1
Параметр CABAC формата : Да
Параметр ReFrames формата : 9 кадров
Идентификатор кодека : V_MPEG4/ISO/AVC
Продолжительность : 52 м.
Битрейт : 3500 Кбит/сек
Ширина : 1280 пикселей
Высота : 720 пикселей
Соотношение сторон : 16:9
Режим частоты кадров : Постоянный
Частота кадров : 25,000 кадров/сек
Цветовое пространство : YUV
Субдискретизация насыщенности : 4:2:0
Битовая глубина : 8 бит
Тип развёртки : Прогрессивная
Бит/(Пиксели*Кадры) : 0.152
Размер потока : 1,26 Гбайт (93%)
Библиотека кодирования : x264 core 146 r2538 121396c
Настройки программы : cabac=1 / ref=9 / deblock=1:-2:-1 / analyse=0x3:0x133 / me=umh / subme=9 / psy=1 / psy_rd=1.00:0.15 / mixed_ref=1 / me_range=32 / chroma_me=1 / trellis=2 / 8x8dct=1 / cqm=0 / deadzone=21,11 / fast_pskip=0 / chroma_qp_offset=-3 / threads=18 / lookahead_threads=3 / sliced_threads=0 / nr=0 / decimate=1 / interlaced=0 / bluray_compat=0 / constrained_intra=0 / bframes=9 / b_pyramid=2 / b_adapt=2 / b_bias=0 / direct=1 / weightb=1 / open_gop=0 / weightp=2 / keyint=250 / keyint_min=25 / scenecut=40 / intra_refresh=0 / rc=2pass / mbtree=0 / bitrate=3500 / ratetol=1.0 / qcomp=0.60 / qpmin=0 / qpmax=69 / qpstep=4 / cplxblur=20.0 / qblur=0.5 / ip_ratio=1.40 / pb_ratio=1.30 / aq=2:1.00
Default : Да
Forced : Нет
Основные цвета : BT.709
Характеристики трансфера : BT.709
Коэффициенты матрицы : BT.709

Аудио
Идентификатор : 2
Формат : AC-3
Формат/Информация : Audio Coding 3
Расширение режима : CM (complete main)
Параметр Endianness формата : Big
Идентификатор кодека : A_AC3
Продолжительность : 52 м.
Вид битрейта : Постоянный
Битрейт : 192 Кбит/сек
Каналы : 2 канала
Расположение каналов : Front: L R
Частота : 48,0 КГц
Битовая глубина : 16 бит
Метод сжатия : С потерями
Размер потока : 72,4 Мбайт (5%)
Default : Да
Forced : Нет

Когда раздача ведётся путём добавления новых серий, при каждом добавлении создётся новый торрент. Чтобы начать докачку новой серии, пользователям необходимо сделать следующее:
(1) остановить скачивание,
(2) удалить старый торрент у себя из клиента (старые серии удалять не надо),
(3) скачать новый торрент и запустить его у себя в клиенте вместо старого, при этом указать клиенту путь в старую папку, куда и должно происходить скачивание новых серий.
Ваш клиент при этом должен произвести хеширование (проверку) старой папки (если не производит сам - помогите ему сделать это), и будет докачивать только те серии, которых у вас ещё нет. Старые серии при этом не удаляются, а продолжают раздаваться!
Eсли вы уже удалили старые серии, то предотвратить повторную закачку старых серий можно, отжав галочку в соответсвующих местах при запуске нового торрента. По возможности, желательно не удалять старые серии как можно дольше, чтобы релизер не столько продолжал раздавать старые серии, а смог сконцентрироваться на новых.
pb.wtf



Скачать Крепкая броня через торрент https://img11.lostpic.net/2020/05/06/5d9ffbc6e61810e9971ff3f5da592539.jpg Скачать фильм Крепкая броня через торрент бесплантно в хорошем качестве Описание: Василий Русаков с отличием оканчивает Саратовское танковое училище. На дворе грохочет война, но это не мешает Василию влюбиться. ... 10 10 5
Торрент: Зарегистрирован [2020-05-09 03:49] · скачан: 96 раз
Статус: √ проверено
Размер: 7.93 GB
Как cкачать? Как скачать Крепкая броня через торрент | qTorrent

% Раздел Тема Автор DL S | L
Наши сериалы [ 4.42 GB ] Крепкая броня / Сезон: 1 / Серии: 1-6 из 6 [2020 Военный HDTVRip-AVC] bober100 Скачать
1 | 1
Наши сериалы [ 3.87 GB ] Крепкая броня / Сезон: 1 / Серии: 1-6 из 6 [2020 Военный HDTVRip] bober100 Скачать
3 | 0
Наши сериалы [ 15.51 GB ] Крепкая броня / Сезон: 1 / Серии: 1-6 из 6 [2020 Военный HDTV 1080i] bober100 Скачать
5 | 0
Наши сериалы [ 3.52 GB ] Крепкая броня / Сезон: 1 / Серии: 1-6 из 6 [2020 Военный SATRip] bober100 Скачать
3 | 0

28-11-2019 20:33  

Отключить всю рекламу на сайте

    Дорогой пользователь! Огромная просьба, поблагодарите релизера, оцените раздачу и оставьте свои комментарий, если Вы скачали Крепкая броня через торрент бесплатно! Внесите свою лепту в развитие PiratBit!
    Комментировать посты могут только пользователи прошедшие не сложную регистрацию
    Показать сообщения:    

    Крепкая броня через торрент
    Скачать бесплатно Крепкая броня
    Крепкая броня скачать торрент
    Крепкая броня смотреть онлайн
    Cкачать фильм Крепкая броня бесплатно
    Крепкая броня скачать торрент в хорошем качестве
    Крепкая броня смотреть онлайн бесплатно в хорошем качестве


    Вы не можете начинать темы
    Вы не можете отвечать на сообщения
    Вы не можете редактировать свои сообщения
    Вы не можете удалять свои сообщения
    Вы не можете голосовать в опросах
    Вы не можете прикреплять файлы к сообщениям
    Вы можете скачивать файлы