Ссылка на приватное зеркало нашего сайта всего за 1$. Внимание количество ограничено!!!

2 сезон

iTunes

1 сезон

1

2 сезон

2 сезон

iTunes

1 сезон

RePack

30

Ultimate

ВАЖНО

ИГРА 18+

pack

RePack

MK11
pack

Забери бонус

RePack

jed

!!Акция!!

Alien_Rage

RePack

fifa19

RePack

Assassins Creed: Odyssey

RePack

NEED FOR SPEED™ PAYBACK

4 сезон

9 сезон

Бесстыжие 9 сезон

Все сериалы

все сериалы на PB.wtf

RePack

FAR CRY 5
  

Преследование / Bumperkleef (Лодевейк Крейнс) [2019, Ужасы, триллер, комедия, WEB-DL 1080p] DUB [iTunes] pb.wtf

Преследование через торрент pb.wtf

Размер: 2.9 GB | Добавлен: 6 мес. назад | Торрент скачан:337 раз
Скачать  

06-05-2020 19:37 Преследование Скачать торрент  

Преследование | Bumperkleef
Год выпуска: 2019
Страна: Нидерланды
Выпущено: AVROTROS, Savage Film, Topkapi Films
Жанр: Ужасы, триллер, комедия
Продолжительность: 01:21:52
Перевод: Дублированный | iTunes
Субтитры: Русские (Full)

Режиссер: Лодевейк Крейнс

rating

В ролях: Ерун Шпиценбергер, Анник Фейфер, Розмарин ван дер Хук, Лиз Вергер, Вилем де Вольф, Труус те Селле, Хьюберт Фермин, Тим Линде, Питер Бланкенстейн, Стэйси Матла

Описание: Молодая семья отправляется в путешествие на автомобиле. Уверенный в себе отец семейства совершает опасный маневр, подгоняя нерасторопного водителя минивэна. Однако такая дерзость не остается безнаказанной, и минивэн начинает преследование обидчика. Никто не мог представить, что эта поездка для всей семьи превратиться в настоящую борьбу за жизнь.

Качество: WEB-DL 1080p
Формат: MKV

Видео: MPEG-4 AVC, 4679 Кбит/с, 1920x804, 25.000 FPS
Аудио: 48 kHz, AC3 Dolby Digital, 3/2 (L,C,R,l,r) + LFE ch, ~384 kbps
скриншот  скриншот  скриншот  скриншот  

Complete name : Presledovanie.2019.WEB-DL.1080p.ELEKTRI4KA.UNIONGANG.mkv
Format : Matroska
Format version : Version 4 / Version 2
File size : 2.90 GiB
Duration : 1 h 21 min
Overall bit rate : 5 065 kb/s
Movie name : .ELEKTRI4KA.UNIONGANG.
Encoded date : UTC 2020-05-06 19:16:57
Writing application : mkvmerge v8.3.0 ('Over the Horizon') 64bit
Writing library : libebml v1.3.1 + libmatroska v1.4.2

Video
ID : 1
Format : AVC
Format/Info : Advanced Video Codec
Format profile : High@L4
Format settings, CABAC : Yes
Format settings, Reference frames : 5 frames
Codec ID : V_MPEG4/ISO/AVC
Duration : 1 h 21 min
Bit rate : 4 679 kb/s
Width : 1 920 pixels
Height : 804 pixels
Display aspect ratio : 2.40:1
Frame rate mode : Constant
Frame rate : 25.000 FPS
Color space : YUV
Chroma subsampling : 4:2:0
Bit depth : 8 bits
Scan type : Progressive
Bits/(Pixel*Frame) : 0.121
Stream size : 2.68 GiB (92%)
Title : .ELEKTRI4KA.UNIONGANG.
Language : English
Default : Yes
Forced : No
Color range : Limited
Color primaries : BT.709
Transfer characteristics : BT.709
Matrix coefficients : BT.709

Audio
ID : 2
Format : AC-3
Format/Info : Audio Coding 3
Mode extension : CM (complete main)
Format settings, Endianness : Big
Codec ID : A_AC3
Duration : 1 h 21 min
Bit rate mode : Constant
Bit rate : 384 kb/s
Channel(s) : 6 channels
Channel positions : Front: L C R, Side: L R, LFE
Sampling rate : 48.0 kHz
Frame rate : 31.250 FPS (1536 spf)
Bit depth : 16 bits
Compression mode : Lossy
Stream size : 225 MiB (8%)
Title : iTunes
Language : Russian
Default : Yes
Forced : No

Text
ID : 3
Format : UTF-8
Codec ID : S_TEXT/UTF8
Codec ID/Info : UTF-8 Plain Text
Duration : 1 h 15 min
Bit rate : 71 b/s
Count of elements : 1219
Stream size : 39.6 KiB (0%)
Title : Full
Language : Russian
Default : Yes
Forced : No

Menu
00:00:00.000 : en:Глава 1
00:08:38.840 : en:Глава 2
00:17:08.079 : en:Глава 3
00:25:16.398 : en:Глава 4
00:33:40.277 : en:Глава 5
00:42:02.157 : en:Глава 6
00:50:57.037 : en:Глава 7
00:59:06.837 : en:Глава 8
01:07:30.357 : en:Глава 9
01:15:18.597 : en:Глава 10

pb.wtf



Скачать Преследование через торрент https://b.radikal.ru/b11/2005/6e/7a7c4cfdadd5.png Скачать фильм Преследование через торрент бесплантно в хорошем качестве Описание: Молодая семья отправляется в путешествие на автомобиле. Уверенный в себе отец семейства совершает опасный маневр, подгоняя ... 9.4 10 11
Торрент: Зарегистрирован [2020-05-06 19:37] · скачан: 337 раз
Статус: √ проверено
Размер: 2.9 GB
Как cкачать? Как скачать Преследование через торрент | qTorrent

% Раздел Тема Автор DL S | L
Фильмы 2019-2020 [DVDrip, WEB-DLRip, HDrip] (DUB, MVO) [ 1.42 GB ] Преследование / Bumperkleef [2019 BDRip] - Twi7ter Скачать
11 | 1
Фильмы 2019-2020 [DVDrip, WEB-DLRip, HDrip] (DUB, MVO) [ 745 MB ] Преследование / Bumperkleef [2019 HDRip] bober100 Скачать
1 | 0
Фильмы [HD 720p, 1080p] (Хороший звук DUB, MVO) [ 3.06 GB ] Преследование / Bumperkleef [2019 BDRip 720p] bober100 Скачать
1 | 0
Фильмы (Blu-ray, BD-Remux, HDDVD) [ 13.07 GB ] Преследование / Bumperkleef [2019 BD Remux 1080p] bober100 Скачать
1 | 0
Фильмы 2019-2020 [DVDrip, WEB-DLRip, HDrip] (DUB, MVO) [ 752 MB ] Преследование / Bumperkleef [2019 BDRip-AVC] от wolf1245 & MediaBit Lithuania Скачать
1 | 0
T Фильмы 2019-2020 [DVDrip, WEB-DLRip, HDrip] (DUB, MVO) [ 1.95 GB ] Преследование / Bumperkleef [2019 BDRip-AVC] от wolf1245 & MediaBit Lithuania Скачать
4 | 0
Фильмы [HD 720p, 1080p] (Хороший звук DUB, MVO) [ 7.35 GB ] Преследование / Bumperkleef [2019 BDRip 1080p] bober100 Скачать
1 | 0

28-11-2019 20:33  

Отключить всю рекламу на сайте

07-05-2020 07:32 Преследование Скачать торрент  

Странно,но интересный фильм.pb.wtf



07-05-2020 11:25 Преследование Скачать торрент  

vudis писал(а):

Странно,но интересный фильм.

Странный.но интересный комментарий! заинтриговал, придется качатьpb.wtf



07-05-2020 12:07 Преследование Скачать торрент  

понравился фильмец.повеселил.pb.wtf



07-05-2020 14:12 Преследование Скачать торрент  

фильм ниже среднего no ((pb.wtf



08-05-2020 13:23 Преследование Скачать торрент  

тупость героев зашкаливаетpb.wtf



08-05-2020 20:13 Преследование Скачать торрент  

хуже ничего еще не виделpb.wtf



10-05-2020 10:57 Преследование Скачать торрент  

Откуда такие оценки? Семья из 4 человек, как на подбор, тупее не придумаешь, их родители точно такие же тупые люди. игра актеров такая же как и герои фильма. Сценаристу похоже лет 7-8 было, когда он писал свой сценарий. Фильм больше подходит в категорию низкопробных треш фильмов. Оценку выше 2 баллов мог поставить только такой же тупой человек, как и герои фильма.pb.wtf



    Дорогой пользователь! Огромная просьба, поблагодарите релизера, оцените раздачу и оставьте свои комментарий, если Вы скачали Преследование через торрент бесплатно! Внесите свою лепту в развитие PiratBit!
    Комментировать посты могут только пользователи прошедшие не сложную регистрацию
    Показать сообщения:    

    Преследование через торрент
    Скачать бесплатно Преследование
    Преследование скачать торрент
    Преследование смотреть онлайн
    Cкачать фильм Преследование бесплатно
    Преследование скачать торрент в хорошем качестве
    Преследование смотреть онлайн бесплатно в хорошем качестве


    Вы не можете начинать темы
    Вы не можете отвечать на сообщения
    Вы не можете редактировать свои сообщения
    Вы не можете удалять свои сообщения
    Вы не можете голосовать в опросах
    Вы не можете прикреплять файлы к сообщениям
    Вы можете скачивать файлы