Ссылка на приватное зеркало нашего сайта всего за 1$. Внимание количество ограничено!!!

2 сезон

iTunes

1 сезон

1

2 сезон

2 сезон

iTunes

1 сезон

RePack

30

Новинка

ВАЖНО

ИГРА 18+

pack

RePack

MK11
pack

Забери бонус

RePack

jed

!!Акция!!

Alien_Rage

RePack

fifa19

RePack

Assassins Creed: Odyssey

RePack

NEED FOR SPEED™ PAYBACK

4 сезон

9 сезон

Бесстыжие 9 сезон

Все сериалы

все сериалы на PB.wtf

RePack

FAR CRY 5
  

Жадность / Greed (Майкл Уинтерботтом) [2019, Драма, комедия, WEB-DL 1080p] DUB [iTunes] pb.wtf

Жадность через торрент pb.wtf

Раздают: 1 [ 0 KB/s ]
Размер: 3.86 GB | Добавлен: 6 мес. назад | Торрент скачан:121 раз
Скачать  

07-05-2020 21:00 Жадность Скачать торрент  

Жадность | Greed
Год выпуска: 2019
Страна: Великобритания
Студия: Film4, Revolution Films, Sony Pictures International Productions
Жанр: Драма, комедия
Продолжительность: 01:44:09
Перевод: Дублированный | iTunes
Субтитры: английские

Режиссер: Майкл Уинтерботтом

rating

В ролях: Стив Куган, Айла Фишер, Ширли Хендерсон, Дэвид Митчелл, Эйса Баттерфилд, Динита Гохил, Софи Куксон, Джейми Блэкли, Шанина Шейк, Джонни Свит

Описание: Миллиардер, владелец самых модных брендов одежды, сделавший состояние с помощью дешевой рабочей силы и авантюрных манипуляций, с помпой отмечает 60-летие на греческом острове Миконос, где собирается весь мировой бомонд. Какие сюрпризы приготовил своим звездным гостям циничный юбиляр?..

Качество: WEB-DL 1080p
Формат: MKV

Видео: MPEG-4 AVC, 4536 Kбит/с, 1920x796, 23.976 кадр/с
Аудио #1: Русский (АС3, 6 ch, 384 Кбит/с, 48.0 KHz) Профессиональный (дублированный) iTunes
Аудио #2: Английский (АС3, 6 ch, 384 Кбит/с, 48.0 KHz)
скриншот  скриншот  скриншот  скриншот  скриншот  

Источник: Greed.2019.1080p.WEB-DL.DD5.1.H264-FGT
General
Unique ID : 214241883157865841949963600734115215237 (0xA12D7C5E258DA677801FEBD310923785)
Complete name : Greed.2019.WEB-DL.1080p.mkv
Format : Matroska
Format version : Version 4
File size : 3.86 GiB
Duration : 1 h 44 min
Overall bit rate : 5 305 kb/s
Encoded date : UTC 2020-05-07 20:22:59
Writing application : mkvmerge v7.1.0 ('Good Love') 64bit built on Jul 27 2014 13:06:55
Writing library : libebml v1.3.0 + libmatroska v1.4.1

Video
ID : 1
Format : AVC
Format/Info : Advanced Video Codec
Format profile : High@L4
Format settings : CABAC / 5 Ref Frames
Format settings, CABAC : Yes
Format settings, Reference fra : 5 frames
Codec ID : V_MPEG4/ISO/AVC
Duration : 1 h 44 min
Bit rate : 4 536 kb/s
Width : 1 920 pixels
Height : 796 pixels
Display aspect ratio : 2.40:1
Frame rate mode : Constant
Frame rate : 23.976 (24000/1001) FPS
Color space : YUV
Chroma subsampling : 4:2:0
Bit depth : 8 bits
Scan type : Progressive
Bits/(Pixel*Frame) : 0.124
Stream size : 3.30 GiB (85%)
Language : English
Default : No
Forced : No
Color range : Limited
Color primaries : BT.709
Transfer characteristics : BT.709
Matrix coefficients : BT.709

Audio #1
ID : 2
Format : AC-3
Format/Info : Audio Coding 3
Commercial name : Dolby Digital
Codec ID : A_AC3
Duration : 1 h 44 min
Bit rate mode : Constant
Bit rate : 384 kb/s
Channel(s) : 6 channels
Channel layout : L R C LFE Ls Rs
Sampling rate : 48.0 kHz
Frame rate : 31.250 FPS (1536 SPF)
Compression mode : Lossy
Stream size : 286 MiB (7%)
Title : DUB | iTunes
Language : Russian
Service kind : Complete Main
Default : Yes
Forced : No

Audio #2
ID : 3
Format : AC-3
Format/Info : Audio Coding 3
Commercial name : Dolby Digital
Codec ID : A_AC3
Duration : 1 h 44 min
Bit rate mode : Constant
Bit rate : 384 kb/s
Channel(s) : 6 channels
Channel layout : L R C LFE Ls Rs
Sampling rate : 48.0 kHz
Frame rate : 31.250 FPS (1536 SPF)
Compression mode : Lossy
Stream size : 286 MiB (7%)
Language : English
Service kind : Complete Main
Default : No
Forced : No

Text
ID : 4
Format : UTF-8
Codec ID : S_TEXT/UTF8
Codec ID/Info : UTF-8 Plain Text
Duration : 1 h 39 min
Bit rate : 92 b/s
Count of elements : 1978
Stream size : 67.6 KiB (0%)
Language : English
Default : No
Forced : No

Menu
00:00:00.000 : en:1
00:07:58.186 : en:2
00:13:42.863 : en:3
00:19:41.513 : en:4
00:26:41.933 : en:5
00:31:16.207 : en:6
00:37:13.356 : en:7
00:43:45.664 : en:8
00:48:56.475 : en:9
00:55:21.151 : en:10
01:00:19.907 : en:11
01:08:12.755 : en:12
01:14:26.336 : en:13
01:20:30.158 : en:14
01:30:42.353 : en:15
01:39:38.722 : en:16

pb.wtf



Скачать Жадность через торрент https://c.radikal.ru/c23/2004/2f/b226c84bf3c7.png Скачать фильм Жадность через торрент бесплантно в хорошем качестве Описание: Миллиардер, владелец самых модных брендов одежды, сделавший состояние с помощью дешевой рабочей силы и авантюрных манипуляций, с ... 8.7 10 7
Торрент: Зарегистрирован [2020-05-07 21:00] · скачан: 121 раз
Статус: √ проверено
Размер: 3.86 GB
Как cкачать? Как скачать Жадность через торрент | qTorrent

% Раздел Тема Автор DL S | L
Фильмы (Blu-ray, BD-Remux, HDDVD) [ 15.73 GB ] Жадность / Greed [2019 BD Remux 1080p] bober100 Скачать
1 | 0
Фильмы [HD 720p, 1080p] (Хороший звук DUB, MVO) [ 8.03 GB ] Жадность / Greed [2019 BDRip 1080p] bober100 Скачать
1 | 0
Фильмы [HD 720p, 1080p] (Хороший звук DUB, MVO) [ 4.02 GB ] Жадность / Greed [2019 BDRip 720p] bober100 Скачать
2 | 0
Фильмы (WEB-DL 720p, 1080p) [ 3.08 GB ] Жадность / Greed [2019 WEB-DL 720p] bober100 Скачать
2 | 0
Фильмы 2019-2020 [DVDrip, WEB-DLRip, HDrip] (DUB, MVO) [ 751 MB ] Жадность / Greed [2019 HDRip] bober100 Скачать
1 | 0
Фильмы 2019-2020 [DVDrip, WEB-DLRip, HDrip] (DUB, MVO) [ 1.46 GB ] Жадность / Greed [2019 BDRip] bober100 Скачать
1 | 0
Discovery [ 1.03 GB ] Investigation Discovery: Американская жадность: Королевский обман - Короли подделки / Investigation Discovery: American greed: Royal bam: Counterfeit Kings [2012 документальный HDTVRip ] schultz Скачать
1 | 0

28-11-2019 20:33  

Отключить всю рекламу на сайте

    Дорогой пользователь! Огромная просьба, поблагодарите релизера, оцените раздачу и оставьте свои комментарий, если Вы скачали Жадность через торрент бесплатно! Внесите свою лепту в развитие PiratBit!
    Комментировать посты могут только пользователи прошедшие не сложную регистрацию
    Показать сообщения:    

    Жадность через торрент
    Скачать бесплатно Жадность
    Жадность скачать торрент
    Жадность смотреть онлайн
    Cкачать фильм Жадность бесплатно
    Жадность скачать торрент в хорошем качестве
    Жадность смотреть онлайн бесплатно в хорошем качестве


    Вы не можете начинать темы
    Вы не можете отвечать на сообщения
    Вы не можете редактировать свои сообщения
    Вы не можете удалять свои сообщения
    Вы не можете голосовать в опросах
    Вы не можете прикреплять файлы к сообщениям
    Вы можете скачивать файлы