Ссылка на приватное зеркало нашего сайта всего за 1$. Внимание количество ограничено!!!

2 сезон

iTunes

1 сезон

1

iTunes

iTunes

iTunes

1 сезон

RePack

30

ИГРА 18+

pack

ВАЖНО

!!Акция!!

Alien_RageХит недели

RePack

MK11
pack

Забери бонус

RePack

jed

!!Акция!!

Alien_Rage

RePack

fifa19

RePack

Assassins Creed: Odyssey

RePack

NEED FOR SPEED™ PAYBACK

4 сезон

9 сезон

Бесстыжие 9 сезон

Все сериалы

все сериалы на PB.wtf

RePack

FAR CRY 5
  

Танкист / Серии: 1-4 из 4 (Александр Ефремов, Елена Михайлова) [2016, военный, мелодрама, SATRip-AVC] pb.wtf

Танкист через торрент pb.wtf

Размер: 2.03 GB | Добавлен: 5 мес. 11 д. назад | Торрент скачан:108 раз
Скачать  

08-05-2020 13:56 Танкист Скачать торрент  

Танкист
Год выпуска: 2016
Страна: Россия | Mauris Film | Нонстоп МЕДИА
Жанр: военный, мелодрама
Продолжительность: 00:42:00
Субтитры: нет
Режиссёр: Александр Ефремов, Елена Михайлова

В ролях:Алексей Чадов, Вероника Пляшкевич, Алексей Назаров, Елизавета Арзамасова, Анатолий Кот, Дирк Мартенс, Сергей Белякович, Александр Ткачёнок
Описание:
Повествование о героях Великой Отечественной войны, о тех, кого во время войны по праву назвали «советскими танковыми асами». Это они, танкисты Красной Армии, сломили победный марш Манштейна, Гудериана, лучших стратегов вермахта. В фильме использованы исторические факты из мемуаров советских танкистов, из биографии подполковника Советской армии Зиновия Григорьевича Колобанова, трижды представленного к Званию Героя Советского Союза.

Качество: SATRip-AVC
Формат: MKV
Видео кодек: H.264
Аудио кодек: AC3
Видео: MPEG4 Video (H264), 720х400, 25fps,2000 Kbps,bit/pixel 0.208
Аудио : AC3 48000Hz, stereo, 192 kbps,2 ch
Общее
Уникальный идентификатор : 244228653477321137146940177677353403385 (0xB7BCBA4A9BC3A1768E7BD617C80EC3F9)
Полное имя : I:\Танкист\01 серия_Танкист_rip by_Aleksan55.mkv
Формат : Matroska
Версия формата : Version 2
Размер файла : 521 Мбайт
Продолжительность : 42 м. 59 с.
Общий поток : 1694 Кбит/сек
Дата кодирования : UTC 2020-05-08 12:30:01
Программа кодирования : mkvmerge v7.8.0 ('River Man') 32bit built on Apr 3 2015 12:11:22
Библиотека кодирования : libebml v1.3.1 + libmatroska v1.4.2

Видео
Идентификатор : 1
Формат : AVC
Формат/Информация : Advanced Video Codec
Профиль формата : High@L4.1
Настройки формата : CABAC / 12 Ref Frames
Параметр CABAC формата : Да
Параметр RefFrames формата : 12 кадров
Идентификатор кодека : V_MPEG4/ISO/AVC
Продолжительность : 42 м. 59 с.
Битрейт : 1500 Кбит/сек
Ширина : 720 пикселей
Высота : 400 пикселей
Соотношение сторон : 16:9
Режим частоты кадров : Постоянный
Частота кадров : 25,000 кадров/сек
Цветовое пространство : YUV
Субдискретизация насыщенности : 4:2:0
Битовая глубина : 8 бит
Тип развёртки : Прогрессивная
Бит/(Пиксели*Кадры) : 0.208
Размер потока : 451 Мбайт (87%)
Библиотека кодирования : x264 core 146 r2538 121396c
Настройки программы : cabac=1 / ref=12 / deblock=1:-2:-2 / analyse=0x3:0x133 / me=umh / subme=9 / psy=1 / psy_rd=1.00:0.15 / mixed_ref=0 / me_range=24 / chroma_me=1 / trellis=2 / 8x8dct=1 / cqm=0 / deadzone=21,11 / fast_pskip=0 / chroma_qp_offset=-3 / threads=10 / lookahead_threads=5 / sliced_threads=0 / nr=0 / decimate=0 / interlaced=0 / bluray_compat=0 / constrained_intra=0 / bframes=12 / b_pyramid=2 / b_adapt=2 / b_bias=0 / direct=3 / weightb=1 / open_gop=0 / weightp=2 / keyint=250 / keyint_min=25 / scenecut=40 / intra_refresh=0 / rc_lookahead=40 / rc=2pass / mbtree=1 / bitrate=1500 / ratetol=1.0 / qcomp=0.60 / qpmin=0 / qpmax=60 / qpstep=4 / cplxblur=20.0 / qblur=0.5 / ip_ratio=1.40 / aq=1:1.00
Default : Да
Forced : Нет
Цветовой диапазон : Limited
Основные цвета : BT.601 PAL
Характеристики трансфера : BT.470 System B/G
Коэффициенты матрицы : BT.470 System B/G

Аудио
Идентификатор : 2
Формат : AC-3
Формат/Информация : Audio Coding 3
Коммерческое название : Dolby Digital
Идентификатор кодека : A_AC3
Продолжительность : 42 м. 59 с.
Вид битрейта : Постоянный
Битрейт : 192 Кбит/сек
Каналы : 2 канала
ChannelLayout : L R
Частота : 48,0 КГц
Частота кадров : 31,250 кадров/сек (1536 SPF)
Метод сжатия : С потерями
Размер потока : 59,0 Мбайт (11%)
ServiceKind/String : Complete Main
Default : Да
Forced : Нет
pb.wtf



Скачать Танкист через торрент http://i111.fastpic.ru/big/2020/0508/bf/63ed6b6c283fdf873a479c86316357bf.jpg Скачать фильм Танкист через торрент бесплантно в хорошем качестве Описание:Повествование о героях Великой Отечественной войны, о тех, кого во время войны по праву назвали «советскими танковыми асами». Это ... 10 10 5
Торрент: Зарегистрирован [2020-05-08 13:56] · скачан: 108 раз
Статус: √ проверено
Размер: 2.03 GB
Как cкачать? Как скачать Танкист через торрент | qTorrent

% Раздел Тема Автор DL S | L
Наши сериалы [ 2.21 GB ] Танкист / Любимый город / Серии: 1-4 из 4 [2016 Военный WEB-DLRip-AVC] bober100 Скачать
2 | 1
Наши сериалы [ 3.39 GB ] Танкист / Любимый город / Серии: 1-4 из 4 [2016 Военный WEB-DL 720p] bober100 Скачать
3 | 0
Наши сериалы [ 2.22 GB ] Танкист / Любимый город / Серии: 1-4 из 4 [2016 Военный WEB-DLRip] bober100 Скачать
1 | 0
Наши сериалы [ 6.59 GB ] Танкист / Любимый город / Серии: 1-4 из 4 [2016 Военный WEB-DL 1080p] bober100 Скачать
1 | 0
Наши сериалы [ 2.19 GB ] Танкист / Любимый город / Серии: 1-4 из 4 [2016 Военный SATRip] bober100 Скачать
1 | 0
Наши сериалы [ 2.28 GB ] Танкисты своих не бросают / Серия 1-4 из 4 [2014 SATRip] White Smoke Скачать
1 | 0

28-11-2019 20:33  

Отключить всю рекламу на сайте

11-05-2020 17:50 Танкист Скачать торрент  

шляпа полная любой док.фильм лучше гляньте про Колобановаpb.wtf



    Дорогой пользователь! Огромная просьба, поблагодарите релизера, оцените раздачу и оставьте свои комментарий, если Вы скачали Танкист через торрент бесплатно! Внесите свою лепту в развитие PiratBit!
    Комментировать посты могут только пользователи прошедшие не сложную регистрацию
    Показать сообщения:    

    Танкист через торрент
    Скачать бесплатно Танкист
    Танкист скачать торрент
    Танкист смотреть онлайн
    Cкачать фильм Танкист бесплатно
    Танкист скачать торрент в хорошем качестве
    Танкист смотреть онлайн бесплатно в хорошем качестве


    Вы не можете начинать темы
    Вы не можете отвечать на сообщения
    Вы не можете редактировать свои сообщения
    Вы не можете удалять свои сообщения
    Вы не можете голосовать в опросах
    Вы не можете прикреплять файлы к сообщениям
    Вы можете скачивать файлы