Достать ножи: Стеклянная луковица

MVO

Добыча

Дубляж

Уэнсдэй

1 сезон

Тор

Дубляж

13 клиническая

1 сезон

Жестокая ночь

MVO

Одни из нас

1 сезон

Deluxe

pack

Рекомендуем

30

Пиратка

ВАЖНО

ВАЖНО

Ghostwire

Пиратка

jed

RePack

nioh2

RePack

RDR2

RePack

NEED FOR SPEED™ PAYBACK

RePack

скачать торрент

Кинопоиск HD

Острые козырьки 6 сезон

6 сезон

FAR CRY 6

RePack

скачать торрент

Лицензия

скачать торрент

MVO

1

1 сезон

скачать торрент

1 сезон

скачать торрент

Лицензия

  

Соник в кино: Дилогия / Sonic the Hedgehog. Dilogy (Джефф Фаулер) [2020 - 2021, фантастика, фэнтези, боевик, WEB-DLRip - HEVC 1080p 10 bit 60 FPS, Дубляж]

Соник в кино: Дилогия через торрент pb.wtf

Размер: 6.09 GB | Добавлен: 6 мес. назад | Торрент скачан:31 раз
Смотреть онлайн | Скачать | Поддержите нас   

08-05-2020 14:51 Соник в кино: Дилогия Скачать торрент  


Sonic the Hedgehog
«Скорость - его второе имя»
Информация о фильме:
Название: Соник в кино
Оригинальное название: Sonic the Hedgehog
Год выхода: 2020
Жанр: Фантастика, фэнтези, боевик, приключения, комедия, семейный
Режиссер: Джефф Фаулер
В ролях: Джеймс Марсден, Бен Шварц, Наташа Ротуэлл, Тика Самптер, Нил МакДонаф, Адам Палли, Джим Керри, Майкл Хоган, Ли Мадждуб, Том Батлер, Фрэнк Ч. Тёрнер
Описание: Мир ждал героя, и появился ёжик. Способный бегать со сверхзвуковой скоростью, Соник должен спасти Землю и не дать злому доктору Роботнику завладеть мировым господством.


Страна: США, Япония, Канада
Студия: Paramount Pictures, Sega, Original Film
Продолжительность: 01:26:44
Перевод: Дублированный | iTunes
Субтитры: русские
Навигация по главам: нет
Информация о файле:
Качество: HDTVRip - HEVC 1080p Rip by DD2D3
Формат: MKV
Видео: V_MPEGH/ISO/HEVC; 1920x1080 (16:9); 3700 Kbps; 60 fps; 0,030 bpp
Аудио: русский; AC3; 448 Kbps; CBR; 6 ch ||
Доп. информация: Open matte, Есть логотип канала СТС
скриншот  скриншот   скриншот   скриншот  

Общее
Уникальный идентификатор : 171974375866239053701410397694552476354 (0x81610F5D216C3D63A69E8C31B3648AC2)
Полное имя : E:\Sonic the Hedgehog. Dilogy (2020 - 2022) WEB-DLRip - HEVC 1080p 10 bit 60 FPS\Sonic the Hedgehog (2020) [Open Matte] HDTVRip - HEVC 1080p 10 bit 60.mkv
Формат : Matroska
Версия формата : Version 2
Размер файла : 2,56 Гбайт
Продолжительность : 1 ч. 26 м.
Общий поток : 4 233 Кбит/сек
Название фильма : Rip by from DD2D3
Дата кодирования : UTC 2022-06-04 11:39:00
Программа кодирования : mkvmerge v6.9.1 ('Blue Panther') 32bit built on Apr 18 2014 18:15:44
Библиотека кодирования : libebml v1.3.0 + libmatroska v1.4.1
Attachments : poster

Видео
Идентификатор : 1
Формат : HEVC
Формат/Информация : High Efficiency Video Coding
Профиль формата : Main [email protected]@Main
Идентификатор кодека : V_MPEGH/ISO/HEVC
Продолжительность : 1 ч. 26 м.
Битрейт : 3 701 Кбит/сек
Ширина : 1 920 пикселей
Высота : 1 080 пикселей
Соотношение сторон : 16:9
Режим частоты кадров : Постоянный
Частота кадров : 60,000 кадров/сек
Цветовое пространство : YUV
Субдискретизация насыщенности : 4:2:0
Битовая глубина : 10 бит
Бит/(Пиксели*Кадры) : 0.030
Размер потока : 2,24 Гбайт (87%)
Default : Да
Forced : Нет
Цветовой диапазон : Limited
Основные цвета : BT.709
Характеристики трансфера : BT.709
Коэффициенты матрицы : BT.709

Аудио
Идентификатор : 2
Формат : AC-3
Формат/Информация : Audio Coding 3
Коммерческое название : Dolby Digital
Идентификатор кодека : A_AC3
Продолжительность : 1 ч. 26 м.
Вид битрейта : Постоянный
Битрейт : 448 Кбит/сек
Каналы : 6 каналов
Channel layout : L R C LFE Ls Rs
Частота : 48,0 КГц
Частота кадров : 31,250 кадров/сек (1536 SPF)
Метод сжатия : С потерями
Размер потока : 278 Мбайт (11%)
Заголовок : Дубляж
Язык : Russian
Service kind : Complete Main
Default : Да
Forced : Нет
Statistics Tags Issue : mkvmerge v8.3.0 ('Over the Horizon') 32bit 2022-05-25 18:16:58 / mkvmerge v6.9.1 ('Blue Panther') 32bit built on Apr 18 2014 18:15:44 2022-06-04 11:39:00
FromStats_BitRate : 448000
FromStats_Duration : 01:26:44.000000000
FromStats_FrameCount : 162625
FromStats_StreamSize : 291424000

Текст
Идентификатор : 3
Формат : UTF-8
Идентификатор кодека : S_TEXT/UTF8
Идентификатор кодека/Информация : UTF-8 Plain Text
Язык : Russian
Default : Нет
Forced : Нет
Statistics Tags Issue : mkvmerge v8.3.0 ('Over the Horizon') 32bit 2022-05-25 18:16:58 / mkvmerge v6.9.1 ('Blue Panther') 32bit built on Apr 18 2014 18:15:44 2022-06-04 11:39:00
FromStats_BitRate : 103
FromStats_Duration : 01:25:36.960000000
FromStats_FrameCount : 1272
FromStats_StreamSize : 66754


© Оформление by DD2D3

Sonic the Hedgehog 2
«Welcome to the next level»
Информация о фильме:
Название: Соник 2 в кино
Оригинальное название: Sonic the Hedgehog 2
Год выхода: 2022
Жанр: Фантастика, фэнтези, боевик, приключения, комедия, семейный
Режиссер: Джефф Фаулер
В ролях: Джеймс Марсден, Джим Керри, Бен Шварц, Тика Самптер, Идрис Эльба, Наташа Ротуэлл, Адам Палли, Шемар Мур, Ли Мадждуб, Коллин О’Шонесси
Описание: Поселившись в Грин-Хилз, Соник стремится доказать, что у него есть все задатки настоящего героя. И геройское испытание не заставляет себя долго ждать: злодейский доктор Роботник вновь строит козни. На этот раз — с загадочным напарником Наклзом. Вместе они разыскивают бесценный изумруд, в котором заключены силы, способные уничтожать целые цивилизации. Соник объединяется с лисенком Тейлзом, чтобы отправиться в кругосветное путешествие и найти изумруд до того, как он попадет в плохие руки.


Страна: США, Япония
Студия: Paramount Pictures, Sega Sammy Group, Original Film
Продолжительность: 02:02:17
Перевод: Дублированный | SDI Media / IYUNO SDI Group
Субтитры: русские | FOCS
Навигация по главам: нет
Информация о файле:
Качество: WEB-DLRip - HEVC 1080p Rip by DD2D3
Формат: MKV
Видео: V_MPEGH/ISO/HEVC; 1920x808 (2.40:1); 3664 Kbps; 60 fps; 0,039 bpp
Аудио: русский; AC3; 384 Kbps; CBR; 6 ch ||
Доп. информация: нет
скриншот   скриншот  скриншот   скриншот  

Общее
Уникальный идентификатор : 202506675756973724893827228625183338092 (0x98595DF8D0AAE293A59C086A916A6E6C)
Полное имя : E:\Sonic the Hedgehog. Dilogy (2020 - 2022) WEB-DLRip - HEVC 1080p 10 bit 60 FPS\Sonic the Hedgehog 2 (2022) WEB-DLRip - HEVC 1080p 10 bit 60 FPS (1).mkv
Формат : Matroska
Версия формата : Version 2
Размер файла : 3,53 Гбайт
Продолжительность : 2 ч. 2 м.
Общий поток : 4 131 Кбит/сек
Название фильма : Rip by from DD2D3
Дата кодирования : UTC 2022-07-12 11:29:04
Программа кодирования : mkvmerge v6.9.1 ('Blue Panther') 32bit built on Apr 18 2014 18:15:44
Библиотека кодирования : libebml v1.3.0 + libmatroska v1.4.1
Attachments : poster

Видео
Идентификатор : 1
Формат : HEVC
Формат/Информация : High Efficiency Video Coding
Профиль формата : Main [email protected]@Main
Идентификатор кодека : V_MPEGH/ISO/HEVC
Продолжительность : 2 ч. 2 м.
Битрейт : 3 665 Кбит/сек
Ширина : 1 920 пикселей
Высота : 808 пикселей
Высота оригинала : 804 пикселя
Соотношение сторон : 2,40:1
Соотношение сторон в оригинале : 2,40:1
Режим частоты кадров : Постоянный
Частота кадров : 60,000 кадров/сек
Цветовое пространство : YUV
Субдискретизация насыщенности : 4:2:0
Битовая глубина : 10 бит
Бит/(Пиксели*Кадры) : 0.039
Размер потока : 3,13 Гбайт (89%)
Default : Да
Forced : Нет
Цветовой диапазон : Limited
Основные цвета : BT.709
Характеристики трансфера : BT.709
Коэффициенты матрицы : BT.709

Аудио
Идентификатор : 2
Формат : AC-3
Формат/Информация : Audio Coding 3
Коммерческое название : Dolby Digital
Идентификатор кодека : A_AC3
Продолжительность : 2 ч. 2 м.
Вид битрейта : Постоянный
Битрейт : 384 Кбит/сек
Каналы : 6 каналов
Channel layout : L R C LFE Ls Rs
Частота : 48,0 КГц
Частота кадров : 31,250 кадров/сек (1536 SPF)
Метод сжатия : С потерями
Размер потока : 336 Мбайт (9%)
Заголовок : Дубляж SDI Media
Язык : Russian
Service kind : Complete Main
Default : Да
Forced : Нет
Statistics Tags Issue : mkvmerge v51.0.0 ('I Wish') 64-bit 2022-06-24 15:20:03 / mkvmerge v6.9.1 ('Blue Panther') 32bit built on Apr 18 2014 18:15:44 2022-07-12 11:29:04
FromStats_BitRate : 384000
FromStats_Duration : 02:02:17.792000000
FromStats_FrameCount : 229306
FromStats_StreamSize : 352214016

Текст
Идентификатор : 3
Формат : UTF-8
Идентификатор кодека : S_TEXT/UTF8
Идентификатор кодека/Информация : UTF-8 Plain Text
Заголовок : FOCS
Язык : Russian
Default : Нет
Forced : Нет
Statistics Tags Issue : mkvmerge v51.0.0 ('I Wish') 64-bit 2022-06-24 15:20:03 / mkvmerge v6.9.1 ('Blue Panther') 32bit built on Apr 18 2014 18:15:44 2022-07-12 11:29:04
FromStats_BitRate : 91
FromStats_Duration : 01:53:04.401000000
FromStats_FrameCount : 1714
FromStats_StreamSize : 77291


© Оформление by DD2D3



Скачать Соник в кино: Дилогия через торрент https://st-kp-yandex-net.translate.goog/images/film_iphone/iphone360_1387469.jpg Скачать, смотреть онлайн Соник в кино: Дилогия бесплантно в хорошем качестве Описание: Мир ждал героя, и появился ёжик. Способный бегать со сверхзвуковой скоростью, Соник должен спасти Землю и не дать злому доктору ... 10 10 6
Info! Золотая раздача, скачанное не засчитывается.
Торрент: Зарегистрирован [2022-07-12 15:49] · скачан: 31 раз
Статус: √ проверено
Размер: 6.09 GB
Как cкачать? Как скачать Соник в кино: Дилогия через торрент | UTorrent




Последний раз редактировалось: dd2d3 (2022-07-12 15:49), всего редактировалось 1 раз

28-11-2019 20:33  


Отключить вcю реклaмy на сайте, в т.ч. и в плеере онлайн просмотра!

11-07-2022 15:55 Соник в кино: Дилогия Скачать торрент  

Прошу добавить дубляж на 2-ю часть



    Дорогой пользователь! Огромная просьба, поблагодарите релизера, оцените раздачу и оставьте свои комментарий, если Вы скачали Соник в кино: Дилогия через торрент бесплатно!!
    Комментировать посты могут только пользователи прошедшие не сложную регистрацию
    Показать сообщения:    


    Соник в кино: Дилогия через торрент
    Скачать бесплатно Соник в кино: Дилогия
    Соник в кино: Дилогия скачать торрент
    Соник в кино: Дилогия смотреть онлайн
    Cкачать фильм Соник в кино: Дилогия бесплатно
    Соник в кино: Дилогия скачать торрент в хорошем качестве
    Соник в кино: Дилогия смотреть онлайн бесплатно в хорошем качестве
    Вы не можете начинать темы
    Вы не можете отвечать на сообщения
    Вы не можете редактировать свои сообщения
    Вы не можете удалять свои сообщения
    Вы не можете голосовать в опросах
    Вы не можете прикреплять файлы к сообщениям
    Вы можете скачивать файлы
    Соник в кино: Дилогия / Sonic the Hedgehog. Dilogy [2020 - 2021, фантастика, фэнтези, боевик, WEB-DLRip - HEVC 1080p 10 bit 60 FPS, Дубляж] смотреть онлайн, скачать торрент picoco.icu