2 сезон

iTunes

MVO

1

2 сезон

iTunes

iTunes

1 сезон

RePack

30

Ultimate

ВАЖНО

ИГРА 18+

pack

RePack

MK11
pack

Легкие деньги

RePack

jed

RePack

fifa19

RePack

RDR2

RePack

NEED FOR SPEED™ PAYBACK

4 сезон

9 сезон

Бесстыжие 9 сезон

Все сериалы

все сериалы на PB.wtf

RePack

FAR CRY 5

Anonymous, доброй ночи, мы не успеваем собрать деньги на оплату серверов за декабрь и январь, помогите нам пожалуйста в это трудное время. В качестве благодарности мы отключим Вам всю рекламу на сайте (укажите свой ник в строку Ваше имя)!

×
  
Magnet ссылка

Соник в кино / Sonic the Hedgehog (Джефф Фаулер) [2020, фантастика, BDRip - HEVC 1080p 10 bit 60 FPS] Дубляж - [Лицензия / iTunes] pb.wtf

Соник в кино через торрент pb.wtf

Размер: 2.69 GB | Добавлен: 8 мес. назад | Торрент скачан:136 раз
Скачать  

08-05-2020 14:51 Соник в кино Скачать торрент  

Соник в кино / Sonic the Hedgehog
««Скорость - его второе имя»»

Год выпуска: 2020
Страна: США,
Жанр: фантастика,
Продолжительность: 01:38:53
Перевод: Дубляж - [Лицензия / iTunes]
Субтитры: русские (Full).
Режиссер: Джефф Фаулер
В ролях:

Джеймс Марсден (Tom), Бен Шварц (Sonic, озвучка), Наташа Ротуэлл (Rachel), Тика Самптер (Maddie Wachowski), Нил МакДонаф (Major Bennington), Адам Палли (Wade Whipple), Джим Керри (Dr. Robotnik), Ли Мадждуб (Agent Stone), Том Батлер (Viсе Chairman Walters), Фрэнк Ч. Тёрнер (Crazy Carl), Мелоди Носифо Ниман (Jojo), Шеннон Чан-Кент (Roadhouse Waitress)
Описание:
Мир ждал героя, и появился ёжик. Способный бегать со сверхзвуковой скоростью, Соник должен спасти Землю и не дать злому доктору Роботнику завладеть мировым господством.
Мировая премьера: 25 января 2020

Качество: BDRip 1080p Rip by DD2D3
Исходник: BDRemux 1080p by SeLeZeN
Видео: V_MPEGH/ISO/HEVC, 1920x804 (2.40:1), 3504 kbps, 59,940 fps, 0,038 bpp
Аудио: русский / AC3 / 5.1 / 48 kHz / 384 kbps / ||
Навигация по главам: есть


General
Unique ID : 201532016082667406395907567319951383818 (0x979DA78A353373388844C84E67809D0A)
Complete name : D:\Соник в кино - Sonic the Hedgehog (2020) BDRip - HEVC 1080p 10 bit 60 FPS.mkv
Format : Matroska
Format version : Version 4
File size : 2.69 GiB
Duration : 1 h 38 min
Overall bit rate : 3 896 kb/s
Movie name : Rip by from DD2D3
Encoded date : UTC 2020-05-08 13:56:58
Writing application : mkvmerge v10.0.0 ('To Drown In You') 32bit
Writing library : libebml v1.3.4 + libmatroska v1.4.5
Attachments : poster

Video
ID : 1
Format : HEVC
Format/Info : High Efficiency Video Coding
Format profile : Main 10@L4.1@Main
Codec ID : V_MPEGH/ISO/HEVC
Duration : 1 h 38 min
Bit rate : 3 505 kb/s
Width : 1 920 pixels
Height : 804 pixels
Display aspect ratio : 2.40:1
Frame rate mode : Constant
Frame rate : 59.940 (60000/1001) FPS
Color space : YUV
Chroma subsampling : 4:2:0
Bit depth : 10 bits
Bits/(Pixel*Frame) : 0.038
Stream size : 2.42 GiB (90%)
Writing library : x265 2.3+33-0b7d54dbb71a87a0:[Windows][MSVC 1800][64 bit] 10bit: KG7x [x265.ru]
Encoding settings : cpuid=1173503 / frame-threads=2 / numa-pools=4 / wpp / no-pmode / no-pme / no-psnr / no-ssim / log-level=2 / input-csp=1 / input-res=1920x804 / interlace=0 / total-frames=355626 / level-idc=41 / high-tier=1 / uhd-bd=0 / ref=3 / no-allow-non-conformance / no-repeat-headers / annexb / no-aud / no-hrd / info / hash=0 / no-temporal-layers / open-gop / min-keyint=25 / keyint=250 / bframes=4 / b-adapt=2 / b-pyramid / bframe-bias=0 / rc-lookahead=20 / lookahead-slices=5 / scenecut=40 / no-intra-refresh / ctu=64 / min-cu-size=8 / no-rect / no-amp / max-tu-size=32 / tu-inter-depth=1 / tu-intra-depth=1 / limit-tu=0 / rdoq-level=0 / dynamic-rd=0.00 / no-ssim-rd / signhide / no-tskip / nr-intra=0 / nr-inter=0 / no-constrained-intra / strong-intra-smoothing / max-merge=2 / limit-refs=3 / no-limit-modes / me=1 / subme=2 / merange=57 / temporal-mvp / weightp / no-weightb / no-analyze-src-pics / deblock=0:0 / no-sao / no-sao-non-deblock / rd=3 / no-early-skip / no-rskip / no-fast-intra / no-tskip-fast / no-cu-lossless / no-b-intra / rdpenalty=0 / psy-rd=4.00 / psy-rdoq=0.00 / no-rd-refine / analysis-mode=0 / no-lossless / cbqpoffs=0 / crqpoffs=0 / rc=abr / bitrate=3500 / qcomp=0.60 / qpstep=1 / stats-write=0 / stats-read=2 / cplxblur=20.0 / qblur=0.5 / ipratio=1.10 / pbratio=1.00 / aq-mode=0 / aq-strength=0.00 / no-cutree / zone-count=0 / no-strict-cbr / qg-size=64 / rc-grain / qpmax=69 / qpmin=0 / sar=1 / overscan=0 / videoformat=5 / range=0 / colorprim=2 / transfer=2 / colormatrix=2 / chromaloc=0 / display-window=0 / max-cll=0,0 / min-luma=0 / max-luma=1023 / log2-max-poc-lsb=8 / vui-timing-info / vui-hrd-info / slices=1 / opt-qp-pps / opt-ref-list-length-pps / no-multi-pass-opt-rps / scenecut-bias=0.05 / no-opt-cu-delta-qp / no-aq-motion / no-hdr / no-hdr-opt / refine-level=5 / no-limit-sao
Default : Yes
Forced : No

Audio
ID : 2
Format : AC-3
Format/Info : Audio Coding 3
Commercial name : Dolby Digital
Codec ID : A_AC3
Duration : 1 h 38 min
Bit rate mode : Constant
Bit rate : 384 kb/s
Channel(s) : 6 channels
Channel layout : L R C LFE Ls Rs
Sampling rate : 48.0 kHz
Frame rate : 31.250 FPS (1536 SPF)
Compression mode : Lossy
Stream size : 272 MiB (10%)
Title : Dub [iTunes]
Language : Russian
Service kind : Complete Main
Default : Yes
Forced : Yes

Text
ID : 3
Format : UTF-8
Codec ID : S_TEXT/UTF8
Codec ID/Info : UTF-8 Plain Text
Duration : 1 h 37 min
Bit rate : 92 b/s
Count of elements : 1294
Stream size : 66.0 KiB (0%)
Title : Full
Language : Russian
Default : No
Forced : No

Menu
00:00:00.000 : en:Chapter 01
00:03:52.190 : en:Chapter 02
00:09:32.989 : en:Chapter 03
00:12:45.973 : en:Chapter 04
00:18:09.421 : en:Chapter 05
00:22:20.797 : en:Chapter 06
00:27:33.693 : en:Chapter 07
00:35:09.107 : en:Chapter 08
00:41:37.328 : en:Chapter 09
00:51:24.623 : en:Chapter 10
01:01:04.827 : en:Chapter 11
01:04:38.374 : en:Chapter 12
01:10:20.341 : en:Chapter 13
01:18:54.020 : en:Chapter 14
01:25:38.716 : en:Chapter 15
01:30:27.296 : en:Chapter 16
скриншот  скриншот  скриншот  скриншот  скриншот  

© Оформление by DD2D3 pb.wtf



Скачать Соник в кино через торрент https://funkyimg.com/i/34KDP.jpg Скачать фильм Соник в кино через торрент бесплантно в хорошем качестве Описание: Мир ждал героя, и появился ёжик. Способный бегать со сверхзвуковой скоростью, Соник должен спасти Землю и не дать злому доктору ... 10 10 5
Торрент: Зарегистрирован [2020-05-08 14:51] · скачан: 136 раз
Статус: √ проверено
Размер: 2.69 GB
Как cкачать? Как скачать Соник в кино через торрент | UTorrent

% Раздел Тема Автор DL S | L
Фильмы (Blu-ray, BD-Remux, HDDVD) [ 37.42 GB ] Соник в кино / Sonic the Hedgehog [2020 Blu-Ray EUR 1080p] DUB [] bober100 Скачать
1 | 0
Фильмы 2019-2020 [DVDrip, WEB-DLRip, HDrip] (DUB, MVO) [ 1.46 GB ] Соник в кино / Sonic the Hedgehog [2020 BDRip] - [] Twi7ter Скачать
176 | 1
Ultra HD (UHD: 2K, 4K, 8K) — видео сверхвысокой чёткости [ 44.34 GB ] Соник в кино / Sonic the Hedgehog [2020 UHD BDRemux 2160p ] DUB [] bober100 Скачать
1 | 0
Ultra HD (UHD: 2K, 4K, 8K) — видео сверхвысокой чёткости [ 58.77 GB ] Соник в кино / Sonic the Hedgehog [2020 UHD Blu-Ray EUR 2160p ] DUB [] bober100 Скачать
2 | 0
Ultra HD (UHD: 2K, 4K, 8K) — видео сверхвысокой чёткости [ 45.38 GB ] Соник в кино / Sonic the Hedgehog [2020 UHD BDRemux 2160p] DUB [] +MVO [HDRezka Studio] bober100 Скачать
1 | 0
Фильмы [HD 720p, 1080p] (Хороший звук DUB, MVO) [ 4.78 GB ] Соник в кино / Sonic the Hedgehog [2020 BDRip 720p] DUB [] bober100 Скачать
1 | 0
Фильмы (Blu-ray, BD-Remux, HDDVD) [ 22.78 GB ] Соник в кино / Sonic the Hedgehog [2020 BD Remux 1080p] DUB [] +MVO [HDRezka Studio] bober100 Скачать
1 | 0

28-11-2019 20:33  

Отключить всю рекламу на сайте


    Дорогой пользователь! Огромная просьба, поблагодарите релизера, оцените раздачу и оставьте свои комментарий, если Вы скачали Соник в кино через торрент бесплатно! Внесите свою лепту в развитие PiratBit!
    Комментировать посты могут только пользователи прошедшие не сложную регистрацию
    Показать сообщения:    

    Соник в кино через торрент
    Скачать бесплатно Соник в кино
    Соник в кино скачать торрент
    Соник в кино смотреть онлайн
    Cкачать фильм Соник в кино бесплатно
    Соник в кино скачать торрент в хорошем качестве
    Соник в кино смотреть онлайн бесплатно в хорошем качестве


    Вы не можете начинать темы
    Вы не можете отвечать на сообщения
    Вы не можете редактировать свои сообщения
    Вы не можете удалять свои сообщения
    Вы не можете голосовать в опросах
    Вы не можете прикреплять файлы к сообщениям
    Вы можете скачивать файлы