Ссылка на приватное зеркало нашего сайта всего за 1$. Внимание количество ограничено!!!

2 сезон

iTunes

1 сезон

1

iTunes

iTunes

iTunes

1 сезон

RePack

30

ИГРА 18+

pack

ВАЖНО

!!Акция!!

Alien_RageХит недели

RePack

MK11
pack

Забери бонус

RePack

jed

!!Акция!!

Alien_Rage

RePack

fifa19

RePack

Assassins Creed: Odyssey

RePack

NEED FOR SPEED™ PAYBACK

4 сезон

9 сезон

Бесстыжие 9 сезон

Все сериалы

все сериалы на PB.wtf

RePack

FAR CRY 5
  

Танкист / Любимый город / Серии: 1-4 из 4 (Александр Ефремов, Елена Михайлова) [2016, Военный, мелодрама, SATRip] pb.wtf

Танкист через торрент pb.wtf

Размер: 2.19 GB | Добавлен: 5 мес. 18 д. назад | Торрент скачан:144 раза
Скачать  

08-05-2020 15:38 Танкист Скачать торрент  

Танкист (Любимый город) Год выпуска: 2016
Страна: Россия, Беларусь
Жанр: Военный, мелодрама
Продолжительность: ~ 00:44:00
Субтитры: отсутствуют

Режиссер: Александр Ефремов, Елена Михайлова



В ролях: Алексей Чадов, Вероника Пляшкевич, Алексей Назаров (II), Елизавета Арзамасова, Анатолий Кот, Дирк Мартенс, Сергей Белякович (II), Александр Ткачёнок

Описание: Андрей Градов начал свой доблестный путь танкиста еще на советско-финской войне, где чудом выжил. Потом обучал курсантов в танковом училище недалеко от государственной границы. Одним из первых принял первый бой с немцами. Попал с экипажем в плен, но доблестно совершив побег, снова вернулся в строй красной армии защищать родину под Ленинградом и Горьким.

Качество: SATRip
Формат: AVI

Видео: XviD, ~ 1618 Кбит/с, 720x400, 25 кадр/с
Аудио: 48.0 kHz, AC3 Dolby Digital, 2/0 (L,R) ch, ~ 192 kbps
скриншот  скриншот  скриншот  скриншот  скриншот  

General
Complete name: C:01.Танкист (Любимый город).(2015).SATRip.by.Nicodem.Files-x.avi
Format: AVI
Format/Info: Audio Video Interleave
File size: 561 MiB
Duration: 43mn 4s
Overall bit rate: 1 819 Kbps
Writing application: VirtualDubMod 1.5.10.3 | www.virtualdub-fr.org || (build 2550/release)
Writing library: VirtualDubMod build 2550/release

Video
ID: 0
Format: MPEG-4 Visual
Format profile: Advanced Simple@L5
Format settings, BVOP: 1
Format settings, QPel: No
Format settings, GMC: No warppoints
Format settings, Matrix: Custom
Codec ID: XVID
Codec ID/Hint: XviD
Duration: 43mn 4s
Bit rate: 1 618 Kbps
Width: 720 pixels
Height: 400 pixels
Display aspect ratio: 16:9
Frame rate: 25.000 fps
Color space: YUV
Chroma subsampling: 4:2:0
Bit depth: 8 bits
Scan type: Progressive
Compression mode: Lossy
Bits/(Pixel*Frame): 0.225
Stream size: 498 MiB (89%)
Writing library: XviD 73

Audio
ID: 1
Format: AC-3
Format/Info: Audio Coding 3
Mode extension: CM (complete main)
Codec ID: 2000
Duration: 43mn 4s
Bit rate mode: Constant
Bit rate: 192 Kbps
Channel(s): 2 channels
Channel positions: Front: L R
Sampling rate: 48.0 KHz
Bit depth: 16 bits
Compression mode: Lossy
Stream size: 59.2 MiB (11%)
Alignment: Split accross interleaves
Interleave, duration: 40 ms (1.00 video frame)
Interleave, preload duration: 500 ms

pb.wtf



Скачать Танкист через торрент https://i111.fastpic.ru/big/2020/0508/ca/47a912cf246df89995a005eb6fc750ca.jpg Скачать фильм Танкист через торрент бесплантно в хорошем качестве Описание: Андрей Градов начал свой доблестный путь танкиста еще на советско-финской войне, где чудом выжил. Потом обучал курсантов в ... 10 10 10
Торрент: Зарегистрирован [2020-05-08 15:38] · скачан: 144 раз
Статус: √ проверено
Размер: 2.19 GB
Как cкачать? Как скачать Танкист через торрент | qTorrent

% Раздел Тема Автор DL S | L
Наши сериалы [ 2.21 GB ] Танкист / Любимый город / Серии: 1-4 из 4 [2016 Военный WEB-DLRip-AVC] bober100 Скачать
4 | 0
Наши сериалы [ 3.39 GB ] Танкист / Любимый город / Серии: 1-4 из 4 [2016 Военный WEB-DL 720p] bober100 Скачать
2 | 0
Наши сериалы [ 2.22 GB ] Танкист / Любимый город / Серии: 1-4 из 4 [2016 Военный WEB-DLRip] bober100 Скачать
2 | 0
Наши сериалы [ 6.59 GB ] Танкист / Любимый город / Серии: 1-4 из 4 [2016 Военный WEB-DL 1080p] bober100 Скачать
2 | 0

28-11-2019 20:33  

Отключить всю рекламу на сайте

    Дорогой пользователь! Огромная просьба, поблагодарите релизера, оцените раздачу и оставьте свои комментарий, если Вы скачали Танкист через торрент бесплатно! Внесите свою лепту в развитие PiratBit!
    Комментировать посты могут только пользователи прошедшие не сложную регистрацию
    Показать сообщения:    

    Танкист через торрент
    Скачать бесплатно Танкист
    Танкист скачать торрент
    Танкист смотреть онлайн
    Cкачать фильм Танкист бесплатно
    Танкист скачать торрент в хорошем качестве
    Танкист смотреть онлайн бесплатно в хорошем качестве


    Вы не можете начинать темы
    Вы не можете отвечать на сообщения
    Вы не можете редактировать свои сообщения
    Вы не можете удалять свои сообщения
    Вы не можете голосовать в опросах
    Вы не можете прикреплять файлы к сообщениям
    Вы можете скачивать файлы