Ссылка на приватное зеркало нашего сайта всего за 1$. Внимание количество ограничено!!!

2 сезон

iTunes

1 сезон

1

iTunes

iTunes

iTunes

1 сезон

RePack

30

ИГРА 18+

pack

ВАЖНО

!!Акция!!

Alien_RageХит недели

RePack

MK11
pack

Забери бонус

RePack

jed

!!Акция!!

Alien_Rage

RePack

fifa19

RePack

Assassins Creed: Odyssey

RePack

NEED FOR SPEED™ PAYBACK

4 сезон

9 сезон

Бесстыжие 9 сезон

Все сериалы

все сериалы на PB.wtf

RePack

FAR CRY 5
  

Танкист / Любимый город / Серии: 1-4 из 4 (Александр Ефремов, Елена Михайлова) [2016, Военный, мелодрама, WEB-DL 1080p] pb.wtf

Танкист через торрент pb.wtf

Раздают: 1 [ 0 KB/s ]
Размер: 6.59 GB | Добавлен: 5 мес. 18 д. назад | Торрент скачан:153 раза
Скачать  

08-05-2020 19:01 Танкист Скачать торрент  

Танкист (Любимый город) Год выпуска: 2016
Страна: Россия, Беларусь
Жанр: Военный, мелодрама
Продолжительность: ~ 00:44:00
Субтитры: отсутствуют

Режиссер: Александр Ефремов, Елена Михайлова



В ролях: Алексей Чадов, Вероника Пляшкевич, Алексей Назаров (II), Елизавета Арзамасова, Анатолий Кот, Дирк Мартенс, Сергей Белякович (II), Александр Ткачёнок

Описание: Повествование о героях Великой Отечественной войны, о тех, кого во время войны по праву назвали «советскими танковыми асами». Это они, танкисты Красной Армии, сломили победный марш Манштейна, Гудериана, лучших стратегов вермахта. В фильме использованы исторические факты из мемуаров советских танкистов, из биографии подполковника Советской армии Зиновия Григорьевича Колобанова, трижды представленного к Званию Героя Советского Союза.

Качество: WEB-DL 1080p
Формат: MKV

Видео: 1920х1080 (16:9), 25 fps, AVC MPEG-4 (x264), High@L4.1 ~ 5005 kbps avg, 0.097 bit/pixel
Аудио: 48.0 kHz, AC3 Dolby Digital, 2/0 (L,R) ch, ~ 256 kbps
скриншот  скриншот  скриншот  скриншот  

Общее
Уникальный идентификатор : 188198614218530462613179983005587568987 (0x8D95BC12C7C2F8CA86C5D60502DB795B)
Полное имя : C:\Tankist.2015.WEB-DL.(1080p).ExKinoRay\Tankist.E01.2015.WEB-DL.(1080p).ExKinoRay.mkv
Формат : Matroska
Версия формата : Version 4
Размер файла : 1,65 Гбайт
Продолжительность : 44 м. 2 с.
Общий поток : 5368 Кбит/сек
Дата кодирования : UTC 2020-05-08 18:24:21
Программа кодирования : mkvmerge v6.9.1 ('Blue Panther') 64bit built on Apr 18 2014 18:23:38
Библиотека кодирования : libebml v1.3.0 + libmatroska v1.4.1

Видео
Идентификатор : 1
Формат : AVC
Формат/Информация : Advanced Video Codec
Профиль формата : High@L4
Настройки формата : CABAC / 4 Ref Frames
Параметр CABAC формата : Да
Параметр RefFrames формата : 4 кадра
Идентификатор кодека : V_MPEG4/ISO/AVC
Продолжительность : 44 м. 2 с.
Битрейт : 5005 Кбит/сек
Ширина : 1920 пикселей
Высота : 1080 пикселей
Соотношение сторон : 16:9
Режим частоты кадров : Постоянный
Частота кадров : 25,000 кадров/сек
Цветовое пространство : YUV
Субдискретизация насыщенности : 4:2:0
Битовая глубина : 8 бит
Тип развёртки : Прогрессивная
Бит/(Пиксели*Кадры) : 0.097
Размер потока : 1,54 Гбайт (93%)
Default : Да
Forced : Нет

Аудио
Идентификатор : 2
Формат : AC-3
Формат/Информация : Audio Coding 3
Коммерческое название : Dolby Digital
Идентификатор кодека : A_AC3
Продолжительность : 44 м. 2 с.
Вид битрейта : Постоянный
Битрейт : 256 Кбит/сек
Каналы : 2 канала
ChannelLayout : L R
Частота : 48,0 КГц
Частота кадров : 31,250 кадров/сек (1536 SPF)
Битовая глубина : 16 бит
Метод сжатия : С потерями
Размер потока : 80,6 Мбайт (5%)
Язык : Russian
ServiceKind/String : Complete Main
Default : Да
Forced : Нет

Внимание! Раздача ведётся путём добавления новых серий; при каждом добавлении создаётся новый торрент.
Чтобы начать докачку новой серии, пользователям необходимо сделать следующее:
1. Остановить скачивание;
2. Удалить старый торрент у себя из клиента (старые серии удалять не надо);
3. Скачать новый торрент и запустить его у себя в клиенте вместо старого, при этом указать клиенту путь в старую папку куда и должно происходить скачивание новых серий. Ваш клиент при этом должен произвести хеширование (проверку) старой папки и будет докачивать только те серии, которых у вас ещё нет. Старые серии при этом не удаляются, а продолжают раздаваться! Eсли вы уже удалили старые серии, то предотвратить повторную закачку старых серий можно, отжав галочку в соответствующих местах при запуске нового торрента.
pb.wtf



Скачать Танкист через торрент https://i111.fastpic.ru/big/2020/0508/ca/47a912cf246df89995a005eb6fc750ca.jpg Скачать фильм Танкист через торрент бесплантно в хорошем качестве Описание: Повествование о героях Великой Отечественной войны, о тех, кого во время войны по праву назвали «советскими танковыми асами». Это ... 9.9 10 8
Торрент: Зарегистрирован [2020-05-09 03:08] · скачан: 153 раз
Статус: √ проверено
Размер: 6.59 GB
Как cкачать? Как скачать Танкист через торрент | qTorrent

% Раздел Тема Автор DL S | L
Наши сериалы [ 2.21 GB ] Танкист / Любимый город / Серии: 1-4 из 4 [2016 Военный WEB-DLRip-AVC] bober100 Скачать
4 | 0
Наши сериалы [ 3.39 GB ] Танкист / Любимый город / Серии: 1-4 из 4 [2016 Военный WEB-DL 720p] bober100 Скачать
1 | 0
Наши сериалы [ 2.22 GB ] Танкист / Любимый город / Серии: 1-4 из 4 [2016 Военный WEB-DLRip] bober100 Скачать
1 | 0
Наши сериалы [ 2.19 GB ] Танкист / Любимый город / Серии: 1-4 из 4 [2016 Военный SATRip] bober100 Скачать
1 | 0

28-11-2019 20:33  

Отключить всю рекламу на сайте

    Дорогой пользователь! Огромная просьба, поблагодарите релизера, оцените раздачу и оставьте свои комментарий, если Вы скачали Танкист через торрент бесплатно! Внесите свою лепту в развитие PiratBit!
    Комментировать посты могут только пользователи прошедшие не сложную регистрацию
    Показать сообщения:    

    Танкист через торрент
    Скачать бесплатно Танкист
    Танкист скачать торрент
    Танкист смотреть онлайн
    Cкачать фильм Танкист бесплатно
    Танкист скачать торрент в хорошем качестве
    Танкист смотреть онлайн бесплатно в хорошем качестве


    Вы не можете начинать темы
    Вы не можете отвечать на сообщения
    Вы не можете редактировать свои сообщения
    Вы не можете удалять свои сообщения
    Вы не можете голосовать в опросах
    Вы не можете прикреплять файлы к сообщениям
    Вы можете скачивать файлы