Ссылка на приватное зеркало нашего сайта всего за 1$. Внимание количество ограничено!!!

2 сезон

iTunes

1 сезон

1

iTunes

iTunes

iTunes

1 сезон

RePack

30

ИГРА 18+

pack

ВАЖНО

!!Акция!!

Alien_RageХит недели

RePack

MK11
pack

Забери бонус

RePack

jed

!!Акция!!

Alien_Rage

RePack

fifa19

RePack

Assassins Creed: Odyssey

RePack

NEED FOR SPEED™ PAYBACK

4 сезон

9 сезон

Бесстыжие 9 сезон

Все сериалы

все сериалы на PB.wtf

RePack

FAR CRY 5
  

Долгий свет маяка / Серии: 1-4 из 4 (Денис Елеонский) [2019, Мелодрама, WEB-DLRip] pb.wtf

Долгий свет маяка через торрент pb.wtf

Размер: 2.5 GB | Добавлен: 5 мес. 16 д. назад | Торрент скачан:10 раз
Скачать  

09-05-2020 11:35 Долгий свет маяка Скачать торрент  

Долгий свет маяка
Год выпуска: 2019
Страна: Россия
Студия: Кинокомпания «БУМЕРАНГ»
Жанр: Мелодрама
Продолжительность: ~ 00:51:09
Субтитры: отсутствуют

Режиссер: Денис Елеонский

В ролях: Анжелика Маркелова, Евгений Антропов, Алексей Демидов, Михаил Хмуров, Екатерина Шмакова, Глеб Кулаков, Владислав Янушенок

Описание: Слепая дочь смотрителя маяка Настя знакомится с моряком Романом. Чтобы помочь любимой и достать деньги на операцию по восстановлению зрения, Роман идет на преступление и попадает в тюрьму. Настя же думает, что любимый ушел в кругосветное плавание, и ждет его возвращения. Но Роман все не приходит, зато в Настю влюбляет успешный бизнесмен Игорь… Дождется ли Настя своего Грея возле маяка, ставшего символом их любви, или ее увезет настойчивый поклонник?

Качество: WEB-DLRip
Формат: AVI

Видео: XviD, ~ 1600 Кбит/с, 720x400, 25 кадр/с
Аудио: 48.0 kHz, AC3 Dolby Digital, 2/0 (L,R) ch, ~ 192 kbps
скриншот  скриншот  скриншот  скриншот  скриншот  

Complete name: H:\fiiles x\Долгий свет маяка .2019..WEB-DLRip Files-x\01. Долгий свет маяка .2019..WEB-DLRip Files-x.avi
Format: AVI
Format/Info: Audio Video Interleave
File size: 659 MiB
Duration: 51mn 9s
Overall bit rate: 1 802 Kbps
Writing application: VirtualDubMod 1.5.10.3 | www.virtualdub-fr.org || (build 2550/release)
Writing library: VirtualDubMod build 2550/release

Video
ID: 0
Format: MPEG-4 Visual
Format profile: Advanced Simple@L5
Format settings, BVOP: 1
Format settings, QPel: No
Format settings, GMC: No warppoints
Format settings, Matrix: Custom
Codec ID: XVID
Codec ID/Hint: XviD
Duration: 51mn 9s
Bit rate: 1 600 Kbps
Width: 720 pixels
Height: 400 pixels
Display aspect ratio: 16:9
Frame rate: 25.000 fps
Color space: YUV
Chroma subsampling: 4:2:0
Bit depth: 8 bits
Scan type: Progressive
Compression mode: Lossy
Bits/(Pixel*Frame): 0.222
Stream size: 586 MiB (89%)
Writing library: XviD 73

Audio
ID: 1
Format: AC-3
Format/Info: Audio Coding 3
Mode extension: CM (complete main)
Codec ID: 2000
Duration: 51mn 9s
Bit rate mode: Constant
Bit rate: 192 Kbps
Channel(s): 2 channels
Channel positions: Front: L R
Sampling rate: 48.0 KHz
Bit depth: 16 bits
Compression mode: Lossy
Stream size: 70.3 MiB (11%)
Alignment: Split accross interleaves
Interleave, duration: 40 ms (1.00 video frame)
Interleave, preload duration: 500 ms

pb.wtf



Скачать Долгий свет маяка через торрент https://i111.fastpic.ru/big/2020/0508/6d/bf383dd36a272b7265d8ea4f545e3d6d.jpg Скачать фильм Долгий свет маяка через торрент бесплантно в хорошем качестве Описание: Слепая дочь смотрителя маяка Настя знакомится с моряком Романом. Чтобы помочь любимой и достать деньги на операцию по ... 10 10 2
Торрент: Зарегистрирован [2020-05-09 11:35] · скачан: 10 раз
Статус: √ проверено
Размер: 2.5 GB
Как cкачать? Как скачать Долгий свет маяка через торрент | qTorrent

% Раздел Тема Автор DL S | L
Наши сериалы [ 7.18 GB ] Долгий свет маяка / Серии: 1-4 из 4 [2019 Мело WEB-DL 1080p] bober100 Скачать
1 | 0
Наши сериалы [ 5.1 GB ] Долгий свет маяка / Серии: 1-4 из 4 [2019 Мело WEB-DL 720p] bober100 Скачать
1 | 0
Наши сериалы [ 2.48 GB ] Долгий свет маяка / Серии: 1-4 из 4 [2019 Мело WEB-DLRip-AVC] bober100 Скачать
1 | 0
Наши сериалы [ 2.24 GB ] Долгий свет маяка / Серии: 1-4 из 4 [2019 SATRip] Леонид Ильич Скачать
1 | 0
Наши сериалы [ 2.31 GB ] Долгий свет маяка / Серии: 1-4 из 4 [2019 SATRip-AVC] aleksan55 Скачать
1 | 0

28-11-2019 20:33  

Отключить всю рекламу на сайте

    Дорогой пользователь! Огромная просьба, поблагодарите релизера, оцените раздачу и оставьте свои комментарий, если Вы скачали Долгий свет маяка через торрент бесплатно! Внесите свою лепту в развитие PiratBit!
    Комментировать посты могут только пользователи прошедшие не сложную регистрацию
    Показать сообщения:    

    Долгий свет маяка через торрент
    Скачать бесплатно Долгий свет маяка
    Долгий свет маяка скачать торрент
    Долгий свет маяка смотреть онлайн
    Cкачать фильм Долгий свет маяка бесплатно
    Долгий свет маяка скачать торрент в хорошем качестве
    Долгий свет маяка смотреть онлайн бесплатно в хорошем качестве


    Вы не можете начинать темы
    Вы не можете отвечать на сообщения
    Вы не можете редактировать свои сообщения
    Вы не можете удалять свои сообщения
    Вы не можете голосовать в опросах
    Вы не можете прикреплять файлы к сообщениям
    Вы можете скачивать файлы