Ссылка на приватное зеркало нашего сайта всего за 1$. Внимание количество ограничено!!!

2 сезон

iTunes

1 сезон

1

iTunes

iTunes

iTunes

1 сезон

RePack

30

ИГРА 18+

pack

ВАЖНО

!!Акция!!

Alien_RageХит недели

RePack

MK11
pack

Забери бонус

RePack

jed

!!Акция!!

Alien_Rage

RePack

fifa19

RePack

Assassins Creed: Odyssey

RePack

NEED FOR SPEED™ PAYBACK

4 сезон

9 сезон

Бесстыжие 9 сезон

Все сериалы

все сериалы на PB.wtf

RePack

FAR CRY 5
  

Диверсант. Крым / Сезон: 3 / Серии: 1-4 из 4 (Дмитрий Иосифов) [2020, Военный, приключения, боевик, драма, HDTV 1080i] pb.wtf

Диверсант. Крым через торрент pb.wtf

Раздают: 1 [ 0.3 KB/s ] Качают: 2 [ 0 KB/s ]
Размер: 11.4 GB | Добавлен: 5 мес. 19 д. назад | Торрент скачан:377 раз
Скачать  

09-05-2020 12:23 Диверсант. Крым Скачать торрент  

Диверсант. Крым
Год выпуска: 2020
Страна: Россия
Жанр: Военный, приключения, боевик, драма
Продолжительность: ~ 00:50:00
Субтитры: отсутствуют

Режиссер: Дмитрий Иосифов



В ролях: Кирилл Плетнёв, Алексей Бардуков, Сергей Колтаков, Дарья Жовнер, Александр Обласов, Артём Алексеев (II), Дирк Мартенс, Ангелина Стречина, Эльдар Калимулин, Джошуа Гротхе, Марина Вайс, Дарья Румянцева, Кристиан Мок, Софья Кускова, Александр Бухаров, Адриан Цвикер, Юрий Уткин, Андрей Фомин, Сергей Ортман, Галина Бессинная, Юрий Щербина, Вячеслав Парыкин

Описание: Июль 1942 года. Алексей Бобриков и Леонид Филатов получают приказ о ликвидации попавшего в плен капитана 1-го ранга Ивана Александрова, виновного в сдаче одного из ключевых рубежей обороны Севастополя. Диверсанты отправляются на задание вдвоем. Установив связь с партизанским отрядом, Алексей и Леонид выдвигаются в город. Первая попытка выполнить приказ оканчивается неудачей: при покушении Александров ранен и госпитализирован в тщательно охраняемый немецкий военный санаторий. После второй попытки захватить Александрова Бобриков и Филатов оказываются в немецком плену…

Качество: HDTV 1080i
Формат: TS

Видео: MPEG-TS AVC, ~ 7000 Кбит/с, 1920x1080, 25 кадр/с
Аудио#1: Русский (AC3, 2 ch, 384 Кбит/с)
Аудио#2: Русский (MP2, 2 ch, 192 Кбит/с)
скриншот  скриншот  скриншот  скриншот  

Общее
Идентификатор : 1 (0x1)
Полное имя : D:ЗаписьDiversant. Krym.S03.HDTV(1080i).GeneralFilm1.Diversant. Krym.S03.HDTV(1080i).GeneralFilm.ts
Формат : MPEG-TS
Размер файла : 2,84 Гбайт
Продолжительность : 49 м.
Режим общего битрейта : Переменный
Общий поток : 8206 Кбит/сек

Видео
Идентификатор : 1904 (0x770)
Идентификатор меню : 80 (0x50)
Формат : AVC
Формат/Информация : Advanced Video Codec
Профиль формата : High@L4.0
Параметр CABAC формата : Да
Параметр ReFrames формата : 3 кадра
Идентификатор кодека : 27
Продолжительность : 49 м.
Битрейт : 7219 Кбит/сек
Ширина : 1920 пикселей
Высота : 1080 пикселей
Соотношение сторон : 16:9
Частота кадров : 25,000 кадров/сек
Стандарт вещания : Component
Цветовое пространство : YUV
Субдискретизация насыщенности : 4:2:0
Битовая глубина : 8 бит
Тип развёртки : Чересстрочная
Порядок развёртки : Верхнее поле первое
Бит/(Пиксели*Кадры) : 0.139
Размер потока : 2,49 Гбайт (88%)
Основные цвета : BT.709
Характеристики трансфера : BT.709
Коэффициенты матрицы : BT.709

Аудио #1
Идентификатор : 2904 (0xB58)
Идентификатор меню : 80 (0x50)
Формат : AC-3
Формат/Информация : Audio Coding 3
Расширение режима : CM (complete main)
Параметр Endianness формата : Big
Идентификатор кодека : 6
Продолжительность : 49 м.
Вид битрейта : Постоянный
Битрейт : 384 Кбит/сек
Каналы : 6 каналов
Расположение каналов : Front: L C R, Side: L R, LFE
Частота : 48,0 КГц
Битовая глубина : 16 бит
Метод сжатия : С потерями
Задержка видео : -120 мс.
Размер потока : 136 Мбайт (5%)
Язык : Russian

Аудио #2
Идентификатор : 2905 (0xB59)
Идентификатор меню : 80 (0x50)
Формат : MPEG Audio
Версия формата : Version 1
Профиль формата : Layer 2
Идентификатор кодека : 3
Продолжительность : 49 м.
Вид битрейта : Постоянный
Битрейт : 192 Кбит/сек
Каналы : 2 канала
Частота : 48,0 КГц
Метод сжатия : С потерями
Задержка видео : -120 мс.
Размер потока : 67,9 Мбайт (2%)
Язык : Russian

Внимание! Раздача ведётся путём добавления новых серий; при каждом добавлении создаётся новый торрент.
Чтобы начать докачку новой серии, пользователям необходимо сделать следующее:
1. Остановить скачивание;
2. Удалить старый торрент у себя из клиента (старые серии удалять не надо);
3. Скачать новый торрент и запустить его у себя в клиенте вместо старого, при этом указать клиенту путь в старую папку куда и должно происходить скачивание новых серий. Ваш клиент при этом должен произвести хеширование (проверку) старой папки и будет докачивать только те серии, которых у вас ещё нет. Старые серии при этом не удаляются, а продолжают раздаваться! Eсли вы уже удалили старые серии, то предотвратить повторную закачку старых серий можно, отжав галочку в соответствующих местах при запуске нового торрента.
pb.wtf



Скачать Диверсант. Крым через торрент http://c.radikal.ru/c32/2005/49/f0bb33899270.jpg Скачать фильм Диверсант. Крым через торрент бесплантно в хорошем качестве Описание: Июль 1942 года. Алексей Бобриков и Леонид Филатов получают приказ о ликвидации попавшего в плен капитана 1-го ранга Ивана ... 9.7 10 19
Info! Золотая раздача, скачанное не засчитывается.
Торрент: Зарегистрирован [2020-05-09 14:32] · скачан: 377 раз
Статус: √ проверено
Размер: 11.4 GB
Как cкачать? Как скачать Диверсант. Крым через торрент | qTorrent

% Раздел Тема Автор DL S | L
Наши сериалы [ 1.74 GB ] Диверсант. Крым / Сезон: 3 / Серии: 1-4 из 4 [2020 военный HDTVRip-AVC] sokol_ok Скачать
35 | 3
Наши сериалы [ 2.72 GB ] Диверсант. Крым / Сезон: 3 / Серии: 1-4 из 4 [2020 Военный SATRip] bober100 Скачать
2 | 0
Наши сериалы [ 3.39 GB ] Диверсант. Крым / Сезон: 3 / Серии: 1-4 из 4 [2020 военный HDTVRip-AVC] sokol_ok Скачать
13 | 2
Наши сериалы [ 5.28 GB ] Диверсант. Крым / Сезон: 3 / Серии: 1-4 из 4 [2020 Военный HDTVRip 720p] bober100 Скачать
5 | 0
Наши сериалы [ 3.14 GB ] Диверсант. Крым / Сезон: 3 / Серии: 1-4 из 4 [2020 Военный HDTVRip-AVC] bober100 Скачать
2 | 0
Наши сериалы [ 2.57 GB ] Диверсант. Крым / Сезон: 3 / Серии: 1-4 из 4 [2020 Военный HDTVRip] bober100 Скачать
1 | 0

28-11-2019 20:33  

Отключить всю рекламу на сайте

    Дорогой пользователь! Огромная просьба, поблагодарите релизера, оцените раздачу и оставьте свои комментарий, если Вы скачали Диверсант. Крым через торрент бесплатно! Внесите свою лепту в развитие PiratBit!
    Комментировать посты могут только пользователи прошедшие не сложную регистрацию
    Показать сообщения:    

    Диверсант. Крым через торрент
    Скачать бесплатно Диверсант. Крым
    Диверсант. Крым скачать торрент
    Диверсант. Крым смотреть онлайн
    Cкачать фильм Диверсант. Крым бесплатно
    Диверсант. Крым скачать торрент в хорошем качестве
    Диверсант. Крым смотреть онлайн бесплатно в хорошем качестве


    Вы не можете начинать темы
    Вы не можете отвечать на сообщения
    Вы не можете редактировать свои сообщения
    Вы не можете удалять свои сообщения
    Вы не можете голосовать в опросах
    Вы не можете прикреплять файлы к сообщениям
    Вы можете скачивать файлы