Ссылка на приватное зеркало нашего сайта всего за 1$. Внимание количество ограничено!!!

2 сезон

iTunes

1 сезон

1

iTunes

iTunes

iTunes

1 сезон

RePack

30

ИГРА 18+

pack

ВАЖНО

!!Акция!!

Alien_RageХит недели

RePack

MK11
pack

Забери бонус

RePack

jed

!!Акция!!

Alien_Rage

RePack

fifa19

RePack

Assassins Creed: Odyssey

RePack

NEED FOR SPEED™ PAYBACK

4 сезон

9 сезон

Бесстыжие 9 сезон

Все сериалы

все сериалы на PB.wtf

RePack

FAR CRY 5
  

Алёша / Серии: 1-4 из 4 (Юрий Попович) [2020, драма, военный, SATRip-AVC] pb.wtf

Алёша через торрент pb.wtf

Размер: 2.3 GB | Добавлен: 5 мес. 18 д. назад | Торрент скачан:37 раз
Скачать  

09-05-2020 19:06 Алёша Скачать торрент  

Алёша
Год выпуска: 2020
Страна: Россия | Киностудия КИТ
Жанр:драма, военный
Продолжительность: 00:47:00
Субтитры: нет
Режиссёр: Юрий Попович

В ролях:Владимир Епифанцев, Анна Попова, Максим Сапрыкин, Евгения Каверау, Вадим Сквирский, Илья Ясинский, Елисей Вдовиченко, Алиса Дудко
Описание:
Лето 1944 года. Разгар Великой Отечественной войны. С одной стороны – отборные немецкие фронтовики, вышколенные солдаты самой опасной и безжалостной армии в мире. С другой – русские партизаны, измотанные, усталые, израненные, голодные, почти забывшие, что такое тепло родного дома, но твердо помнящие одно: за спиной – Родина, поэтому отступать – нельзя.

Качество: SATRip-AVC
Формат: MKV
Видео кодек: H.264
Аудио кодек: AC3
Видео: MPEG4 Video (H264), 720х400, 25fps,1500 Kbps,bit/pixel 0.208
Аудио : AC3 48000Hz, stereo, 192 kbps,2 ch
Общее
Уникальный идентификатор : 195007841262919056366178154720621604772 (0x92B524E2F118F89296A64B4CF0ADAFA4)
Полное имя : I:\Алёша\01 серия_Алёша_rip by_Aleksan55.mkv
Формат : Matroska
Версия формата : Version 2
Размер файла : 579 Мбайт
Продолжительность : 47 м. 45 с.
Общий поток : 1694 Кбит/сек
Дата кодирования : UTC 2020-05-09 17:14:48
Программа кодирования : mkvmerge v7.8.0 ('River Man') 32bit built on Apr 3 2015 12:11:22
Библиотека кодирования : libebml v1.3.1 + libmatroska v1.4.2

Видео
Идентификатор : 1
Формат : AVC
Формат/Информация : Advanced Video Codec
Профиль формата : High@L4.1
Настройки формата : CABAC / 12 Ref Frames
Параметр CABAC формата : Да
Параметр RefFrames формата : 12 кадров
Идентификатор кодека : V_MPEG4/ISO/AVC
Продолжительность : 47 м. 45 с.
Битрейт : 1500 Кбит/сек
Ширина : 720 пикселей
Высота : 400 пикселей
Соотношение сторон : 16:9
Режим частоты кадров : Постоянный
Частота кадров : 25,000 кадров/сек
Цветовое пространство : YUV
Субдискретизация насыщенности : 4:2:0
Битовая глубина : 8 бит
Тип развёртки : Прогрессивная
Бит/(Пиксели*Кадры) : 0.208
Размер потока : 501 Мбайт (87%)
Библиотека кодирования : x264 core 146 r2538 121396c
Настройки программы : cabac=1 / ref=12 / deblock=1:-2:-2 / analyse=0x3:0x133 / me=umh / subme=9 / psy=1 / psy_rd=1.00:0.15 / mixed_ref=0 / me_range=24 / chroma_me=1 / trellis=2 / 8x8dct=1 / cqm=0 / deadzone=21,11 / fast_pskip=0 / chroma_qp_offset=-3 / threads=10 / lookahead_threads=5 / sliced_threads=0 / nr=0 / decimate=0 / interlaced=0 / bluray_compat=0 / constrained_intra=0 / bframes=12 / b_pyramid=2 / b_adapt=2 / b_bias=0 / direct=3 / weightb=1 / open_gop=0 / weightp=2 / keyint=250 / keyint_min=25 / scenecut=40 / intra_refresh=0 / rc_lookahead=40 / rc=2pass / mbtree=1 / bitrate=1500 / ratetol=1.0 / qcomp=0.60 / qpmin=0 / qpmax=60 / qpstep=4 / cplxblur=20.0 / qblur=0.5 / ip_ratio=1.40 / aq=1:1.00
Default : Да
Forced : Нет
Цветовой диапазон : Limited
Основные цвета : BT.601 PAL
Характеристики трансфера : BT.470 System B/G
Коэффициенты матрицы : BT.470 System B/G

Аудио
Идентификатор : 2
Формат : AC-3
Формат/Информация : Audio Coding 3
Коммерческое название : Dolby Digital
Идентификатор кодека : A_AC3
Продолжительность : 47 м. 45 с.
Вид битрейта : Постоянный
Битрейт : 192 Кбит/сек
Каналы : 2 канала
ChannelLayout : L R
Частота : 48,0 КГц
Частота кадров : 31,250 кадров/сек (1536 SPF)
Метод сжатия : С потерями
Размер потока : 65,6 Мбайт (11%)
ServiceKind/String : Complete Main
Default : Да
Forced : Нет
pb.wtf



Скачать Алёша через торрент http://i111.fastpic.ru/big/2020/0509/df/bc67958e3382036456f9b2824c9622df.jpg Скачать фильм Алёша через торрент бесплантно в хорошем качестве Описание:Лето 1944 года. Разгар Великой Отечественной войны. С одной стороны – отборные немецкие фронтовики, вышколенные солдаты самой ... 5 10 1
Торрент: Зарегистрирован [2020-05-09 19:06] · скачан: 37 раз
Статус: √ проверено
Размер: 2.3 GB
Как cкачать? Как скачать Алёша через торрент | qTorrent

% Раздел Тема Автор DL S | L
Наши сериалы [ 8.32 GB ] Алёша / Сезон: 1 / Серии: 1-4 из 4 [2020 военный WEB-DL 1080p] sokol_ok Скачать
6 | 0
Наши сериалы [ 2.99 GB ] Алёша / Сезон: 1 / Серии: 1-4 из 4 [2020 военный WEB-DLRip-AVC] sokol_ok Скачать
6 | 0
Наши сериалы [ 5.05 GB ] Алеша / Серии: 1-4 из 4 [2020 Военный WEBRip 720p] bober100 Скачать
2 | 0
Наши сериалы [ 3 GB ] Алеша / Серии: 1-4 из 4 [2020 Военный WEBRip-AVC] bober100 Скачать
1 | 0
Наши сериалы [ 8.41 GB ] Алеша / Серии: 1-4 из 4 [2020 Военный WEBRip 1080p] bober100 Скачать
1 | 0
Наши сериалы [ 2.46 GB ] Алеша / Серии: 1-4 из 4 [2020 Военный WEBRip] bober100 Скачать
1 | 0
Наши сериалы [ 2.54 GB ] Алеша / Серии: 1-4 из 4 [2020 Военный SATRip] bober100 Скачать
2 | 0

28-11-2019 20:33  

Отключить всю рекламу на сайте

    Дорогой пользователь! Огромная просьба, поблагодарите релизера, оцените раздачу и оставьте свои комментарий, если Вы скачали Алёша через торрент бесплатно! Внесите свою лепту в развитие PiratBit!
    Комментировать посты могут только пользователи прошедшие не сложную регистрацию
    Показать сообщения:    

    Алёша через торрент
    Скачать бесплатно Алёша
    Алёша скачать торрент
    Алёша смотреть онлайн
    Cкачать фильм Алёша бесплатно
    Алёша скачать торрент в хорошем качестве
    Алёша смотреть онлайн бесплатно в хорошем качестве


    Вы не можете начинать темы
    Вы не можете отвечать на сообщения
    Вы не можете редактировать свои сообщения
    Вы не можете удалять свои сообщения
    Вы не можете голосовать в опросах
    Вы не можете прикреплять файлы к сообщениям
    Вы можете скачивать файлы