Ссылка на приватное зеркало нашего сайта всего за 1$. Внимание количество ограничено!!!

2 сезон

iTunes

iTunes

1

iTunes

iTunes

iTunes

WEBRip

iTunes

30
pack

Забери бонус

ВАЖНО

!!Акция!!

Alien_RageХит недели

RePack

RESIDENT EVIL 3: NEMESIS REMAKE

ИГРА 18+

pack

RePack

jed

!!Акция!!

Alien_Rage

RePack

fifa19

RePack

Assassins Creed: Odyssey

RePack

NEED FOR SPEED™ PAYBACK

4 сезон

9 сезон

Бесстыжие 9 сезон

Все сериалы

все сериалы на PB.wtf

RePack

FAR CRY 5
  

Джей и молчаливый Боб: Перезагрузка / Jay and Silent Bob Reboot (Кевин Смит) [2019, Комедия, BDRip 1080p] DVO [Кубик в Кубе] pb.wtf

Джей и молчаливый Боб: Перезагрузка через торрент pb.wtf

Раздают: 6 [ 121 KB/s ]
Размер: 9.36 GB | Добавлен: 4 мес. 23 д. назад | Торрент скачан:301 раз
Скачать  

09-05-2020 19:22 Джей и молчаливый Боб: Перезагрузка Скачать торрент  

Джей и молчаливый Боб: Перезагрузка | Jay and Silent Bob Reboot
Год выпуска: 2019
Страна: США
Студия: Destro Films, SModcast Pictures, Hideout Pictures, Miramax Films, Intercut Capital
Жанр: Комедия
Продолжительность: 01:45:19
Перевод: Профессиональный (двухголосый закадровый) | Кубик в Кубе
Субтитры: Russian (Full), English (Full)

Режиссер: Кевин Смит

rating


В ролях: Джейсон Мьюз, Кевин Смит, Мэтт Дэймон, Крис Хемсворт, Бен Аффлек, Мелисса Бенойст, Вэл Килмер, Розарио Доусон, Джо Манганьелло, Джеймс Ван Дер Бик

Описание: Неугомонные приятели Джей и молчаливый Боб отправляются в Голливуд, когда узнают, что студия готовит новую экранизацию комикса о Пыхаре и Хронике, прототипами которых стали они сами.

Качество: BDRip 1080p
Формат: MKV

Видео: 1920x804 at 23.976 fps, x264, ~11800 kbps avg
Аудио#1 Russian: 48 kHz, AC3, 2/0 (L,R) ch, ~192 kbps avg |Двухголосый закадровый, Кубик в Кубе|
Аудио#2 English: 48 kHz, AC3, 3/2 (L,C,R,l,r) + LFE ch, ~448 kbps avg
скриншот  скриншот  скриншот  скриншот  

General
Unique ID : 192589645338492967616037348226657369174 (0x90E36A9F53A0F6C096F8110B59E73C56)
Complete name : Jay.and.Silent.Bob.Reboot.2019.BDRip.1080p.mkv
Format : Matroska
Format version : Version 2
File size : 9.36 GiB
Duration : 1 h 45 min
Overall bit rate : 12.7 Mb/s
Movie name : Джей и Молчаливый Боб: Перезагрузка / Jay and Silent Bob Reboot (2019)
Encoded date : UTC 2020-05-09 18:53:26
Writing application : mkvmerge v5.8.0 ('No Sleep / Pillow') built on Sep 2 2012 15:37:04
Writing library : libebml v1.2.3 + libmatroska v1.3.0

Video
ID : 1
Format : AVC
Format/Info : Advanced Video Codec
Format profile : High@L4.1
Format settings : CABAC / 4 Ref Frames
Format settings, CABAC : Yes
Format settings, Reference fra : 4 frames
Codec ID : V_MPEG4/ISO/AVC
Duration : 1 h 45 min
Bit rate : 11.8 Mb/s
Width : 1 920 pixels
Height : 804 pixels
Display aspect ratio : 2.40:1
Frame rate mode : Constant
Frame rate : 23.976 (24000/1001) FPS
Color space : YUV
Chroma subsampling : 4:2:0
Bit depth : 8 bits
Scan type : Progressive
Bits/(Pixel*Frame) : 0.320
Stream size : 8.70 GiB (93%)
Writing library : x264 core 157 r2867+150 7e91e0e t_mod_Custom_2 [8-bit@all X86_64]
Encoding settings : cabac=1 / ref=4 / deblock=1:-3:-3 / analyse=0x3:0x133 / me=umh / subme=11 / psy=1 / fade_compensate=0.00 / psy_rd=0.90:0.10 / mixed_ref=1 / me_range=64 / chroma_me=1 / trellis=2 / 8x8dct=1 / cqm=0 / deadzone=21,11 / fast_pskip=0 / chroma_qp_offset=-4 / threads=25 / lookahead_threads=4 / sliced_threads=0 / nr=0 / decimate=1 / interlaced=0 / bluray_compat=0 / constrained_intra=0 / fgo=0 / bframes=8 / b_pyramid=2 / b_adapt=2 / b_bias=0 / direct=3 / weightb=1 / open_gop=0 / weightp=2 / keyint=250 / keyint_min=24 / scenecut=40 / intra_refresh=0 / rc_lookahead=60 / rc=crf / mbtree=0 / crf=18.0000 / qcomp=0.70 / qpmin=0:0:0 / qpmax=69:69:69 / qpstep=4 / vbv_maxrate=35000 / vbv_bufsize=35000 / crf_max=0.0 / nal_hrd=none / filler=0 / ip_ratio=1.40 / pb_ratio=1.30 / aq=3:1.00 / aq-sensitivity=10.00 / aq-factor=1.00:1.00:1.00 / aq2=0 / aq3=0
Language : English
Default : Yes
Forced : No

Audio #1
ID : 2
Format : AC-3
Format/Info : Audio Coding 3
Commercial name : Dolby Digital
Codec ID : A_AC3
Duration : 1 h 45 min
Bit rate mode : Constant
Bit rate : 192 kb/s
Channel(s) : 2 channels
Channel layout : L R
Sampling rate : 48.0 kHz
Frame rate : 31.250 FPS (1536 SPF)
Bit depth : 16 bits
Compression mode : Lossy
Stream size : 145 MiB (2%)
Title : Кубик в Кубе
Language : Russian
Service kind : Complete Main
Default : Yes
Forced : No

Audio #2
ID : 3
Format : AC-3
Format/Info : Audio Coding 3
Commercial name : Dolby Digital
Codec ID : A_AC3
Duration : 1 h 45 min
Bit rate mode : Constant
Bit rate : 448 kb/s
Channel(s) : 6 channels
Channel layout : L R C LFE Ls Rs
Sampling rate : 48.0 kHz
Frame rate : 31.250 FPS (1536 SPF)
Bit depth : 16 bits
Compression mode : Lossy
Stream size : 337 MiB (4%)
Language : English
Service kind : Complete Main
Default : No
Forced : No

Text #1
ID : 4
Format : UTF-8
Codec ID : S_TEXT/UTF8
Codec ID/Info : UTF-8 Plain Text
Title : Full
Language : Russian
Default : No
Forced : No

Text #2
ID : 5
Format : UTF-8
Codec ID : S_TEXT/UTF8
Codec ID/Info : UTF-8 Plain Text
Title : Full
Language : English
Default : No
Forced : No

Menu
00:00:00.000 : :Глава 01
00:10:00.000 : :Глава 02
00:20:00.000 : :Глава 03
00:30:00.000 : :Глава 04
00:40:00.000 : :Глава 05
00:50:00.000 : :Глава 06
01:00:00.000 : :Глава 07
01:10:00.000 : :Глава 08
01:20:00.000 : :Глава 09
01:30:00.000 : :Глава 10
01:40:00.000 : :Глава 11

pb.wtf



Скачать Джей и молчаливый Боб: Перезагрузка через торрент https://i6.imageban.ru/out/2020/05/09/fb915cdaa1b1b590c6e74f8f7272dd56.jpg Скачать фильм Джей и молчаливый Боб: Перезагрузка через торрент бесплантно в хорошем качестве Описание: Неугомонные приятели Джей и молчаливый Боб отправляются в Голливуд, когда узнают, что готовит новую экранизацию комикса о ... 10 10 8
Торрент: Зарегистрирован [2020-05-09 19:22] · скачан: 301 раз
Статус: √ проверено
Размер: 9.36 GB
Как cкачать? Как скачать Джей и молчаливый Боб: Перезагрузка через торрент | qTorrent

% Раздел Тема Автор DL S | L
Фильмы [HD 720p, 1080p] (Хороший звук DUB, MVO) [ 13.61 GB ] Джей и Молчаливый Боб: Перезагрузка / Jay and Silent Bob Reboot [2019 BDRip 1080p] [MVO] + [DVO] killermax2013 Скачать
6 | 0
Фильмы 2019-2020 [DVDrip, WEB-DLRip, HDrip] (DUB, MVO) [ 1.46 GB ] Джей и молчаливый Боб: Перезагрузка / Jay and Silent Bob Reboot [2019 BDRip] MVO [HDrezka Studio] bober100 Скачать
11 | 0
Фильмы [HD 720p, 1080p] (Хороший звук DUB, MVO) [ 10.33 GB ] Джей и молчаливый Боб: Перезагрузка / Jay and Silent Bob Reboot [2019 BDRip 1080p] MVO [HDrezka Studio] bober100 Скачать
4 | 0
Фильмы (Blu-ray, BD-Remux, HDDVD) [ 30.63 GB ] Джей и молчаливый Боб: Перезагрузка / Jay and Silent Bob Reboot [2019 BD Remux 1080p] AVO [М. Яроцкий ] bober100 Скачать
1 | 0
# Фильмы [HD 720p, 1080p] (Хороший звук DUB, MVO) [ 3.9 GB ] Джей и молчаливый Боб: Перезагрузка / Jay and Silent Bob Reboot [2019 BDRip 720p] MVO [HDrezka Studio] bober100 Скачать
5 | 0

28-11-2019 20:33  

Отключить всю рекламу на сайте

10-05-2020 12:41 Джей и молчаливый Боб: Перезагрузка Скачать торрент  

Отстой Пид@рский. гомосятина и русофобия. вот дерьмо :(pb.wtf



12-05-2020 12:56 Джей и молчаливый Боб: Перезагрузка Скачать торрент  

Согласен, дерьмовейшее кинцо. Скачал только потому что прошлые части были огонь, но подсознательно уже понимал что этот фильм уг - собсна так и получилось.pb.wtf



13-05-2020 20:41 Джей и молчаливый Боб: Перезагрузка Скачать торрент  

Hesper писал(а):

Согласен, дерьмовейшее кинцо. Скачал только потому что прошлые части были огонь, но подсознательно уже понимал что этот фильм уг - собсна так и получилось.

Прости что? Прошлые части? А сколько их было?pb.wtf



17-05-2020 12:46 Джей и молчаливый Боб: Перезагрузка Скачать торрент  

BeeRka писал(а):

Hesper писал(а):

Согласен, дерьмовейшее кинцо. Скачал только потому что прошлые части были огонь, но подсознательно уже понимал что этот фильм уг - собсна так и получилось.

Прости что? Прошлые части? А сколько их было?

Было две части, Джей и Молчаливый Боб. И они же наносят ответный удар. Фильмы отличные. И еще нужно смотреть Догма. С этими же кренделями.pb.wtf



18-05-2020 19:48 Джей и молчаливый Боб: Перезагрузка Скачать торрент  

Bobr751 писал(а):

BeeRka писал(а):

Hesper писал(а):

Согласен, дерьмовейшее кинцо. Скачал только потому что прошлые части были огонь, но подсознательно уже понимал что этот фильм уг - собсна так и получилось.

Прости что? Прошлые части? А сколько их было?

Было две части, Джей и Молчаливый Боб. И они же наносят ответный удар. Фильмы отличные. И еще нужно смотреть Догма. С этими же кренделями.

Не было двух частей до этого. Это серия фильмов начиная с Клерков, в которых Джей и молчаливый Боб присутвстуют, а Ответный удар это сольник про них. Там типо целая вселенная своя. Фильм началася здраво а закончился за упокой. Тему подняли правильную, что мол много ремейков(франшизы) стали делать а нового ничего нет. Про китаянку и русских смотрится нелепо, следует модным тендециям пропаганды, но делать этого правильно не умеет(до Чернобыля не дорос). Вырезать этот бред и вернуть Марка Хэмила в роль "Херобойца" было бы самое то. Даже сцены в титрах и то смешнее потому, что не пропаганда и не потуги сделать не смешное смешным.

Перевод Кубик в Кубе рекомендую))) отлично перевели с матюками.pb.wtf



    Дорогой пользователь! Огромная просьба, поблагодарите релизера, оцените раздачу и оставьте свои комментарий, если Вы скачали Джей и молчаливый Боб: Перезагрузка через торрент бесплатно! Внесите свою лепту в развитие PiratBit!
    Комментировать посты могут только пользователи прошедшие не сложную регистрацию
    Показать сообщения:    

    Джей и молчаливый Боб: Перезагрузка через торрент
    Скачать бесплатно Джей и молчаливый Боб: Перезагрузка
    Джей и молчаливый Боб: Перезагрузка скачать торрент
    Джей и молчаливый Боб: Перезагрузка смотреть онлайн
    Cкачать фильм Джей и молчаливый Боб: Перезагрузка бесплатно
    Джей и молчаливый Боб: Перезагрузка скачать торрент в хорошем качестве
    Джей и молчаливый Боб: Перезагрузка смотреть онлайн бесплатно в хорошем качестве


    Вы не можете начинать темы
    Вы не можете отвечать на сообщения
    Вы не можете редактировать свои сообщения
    Вы не можете удалять свои сообщения
    Вы не можете голосовать в опросах
    Вы не можете прикреплять файлы к сообщениям
    Вы можете скачивать файлы