Ссылка на приватное зеркало нашего сайта всего за 1$. Внимание количество ограничено!!!

2 сезон

iTunes

1 сезон

1

2 сезон

2 сезон

iTunes

1 сезон

RePack

30

Ultimate

ВАЖНО

ИГРА 18+

pack

RePack

MK11
pack

Забери бонус

RePack

jed

!!Акция!!

Alien_Rage

RePack

fifa19

RePack

Assassins Creed: Odyssey

RePack

NEED FOR SPEED™ PAYBACK

4 сезон

9 сезон

Бесстыжие 9 сезон

Все сериалы

все сериалы на PB.wtf

RePack

FAR CRY 5
  

Запретная кухня / Abe (Фернанду Гроштейн Андради) [2019, Драма, комедия, WEB-DL 1080p] DUB [iTunes] pb.wtf

Запретная кухня через торрент pb.wtf

Размер: 2.85 GB | Добавлен: 6 мес. назад | Торрент скачан:109 раз
Скачать  

09-05-2020 19:28 Запретная кухня Скачать торрент  

Запретная кухня | Abe
Год выпуска: 2019
Страна: США, Бразилия
Студия: Gullane, Spray Filmes
Жанр: Драма, комедия
Продолжительность: 01:22:23
Перевод: Дублированный | iTunes
Субтитры: отсутствуют

Режиссер: Фернанду Гроштейн Андради

rating

В ролях: Ноа Шнапп, Дагмара Доминчик, Марк Марголис, Ариан Моайед, Александр Ходж, Сеу Жоржи, Том Мардиросян, Тедди Колука, Дэниэл Орескс, Салем Мерфи

Описание: Эйбу 12 Он живет в Бруклине и обожает готовить. Но почти каждый ужин его еврейско-арабской семьи заканчивается дракой. Может быть, кухня сможет исцелить вековые разногласия? Сумеет ли Эйб приготовить блюдо, которое наконец-то объединит за столом всех его родственников?

Качество: WEB-DL 1080p
Формат: MKV

Видео: x264, 4556 Kb/s, 1920x804 (2.40:1), 25.000 fps, 0.118 bit/pixel
Аудио: 48 kHz, AC3 Dolby Digital, 3/2 (L,C,R,l,r) + LFE ch, ~384 kbps
скриншот  скриншот  скриншот  скриншот  

Format: Matroska
Format version: Version 4
File size: 2.85 GiB
Duration: 1 h 22 min
Overall bit rate: 4 952 kb/s
Movie name: ELEKTRI4KA - Kapo
Encoded date: UTC 2020-05-09 19:07:38
Writing application: mkvmerge v41.0.0 ('Smarra') 64-bit
Writing library: libebml v1.3.9 + libmatroska v1.5.2
Cover: Yes
Attachments: cover.jpg

Video
ID: 1
Format: AVC
Format/Info: Advanced Video Codec
Format profile: High@L4
Format settings: CABAC / 5 Ref Frames
Format settings, CABAC: Yes
Format settings, Reference frames: 5 frames
Codec ID: V_MPEG4/ISO/AVC
Duration: 1 h 22 min
Bit rate: 4 566 kb/s
Width: 1 920 pixels
Height: 804 pixels
Display aspect ratio: 2.40:1
Frame rate mode: Constant
Frame rate: 25.000 FPS
Color space: YUV
Chroma subsampling: 4:2:0
Bit depth: 8 bits
Scan type: Progressive
Bits/(Pixel*Frame): 0.118
Stream size: 2.63 GiB (92%)
Title: ELEKTRI4KA - Kapo
Language: English
Default: Yes
Forced: No
Color range: Limited
Color primaries: BT.709
Transfer characteristics: BT.709
Matrix coefficients: BT.709

Audio
ID: 2
Format: AC-3
Format/Info: Audio Coding 3
Commercial name: Dolby Digital
Codec ID: A_AC3
Duration: 1 h 22 min
Bit rate mode: Constant
Bit rate: 384 kb/s
Channel(s): 6 channels
Channel layout: L R C LFE Ls Rs
Sampling rate: 48.0 kHz
Frame rate: 31.250 FPS (1536 SPF)
Compression mode: Lossy
Delay relative to video: -40 ms
Stream size: 226 MiB (8%)
Title: ELEKTRI4KA - Kapo
Language: Russian
Service kind: Complete Main
Default: Yes
Forced: No

Menu
00:00:00.000: en:Глава 1
00:04:28.440: en:Глава 2
00:08:40.600: en:Глава 3
00:13:23.799: en:Глава 4
00:20:25.439: en:Глава 5
00:25:39.478: en:Глава 6
00:30:21.878: en:Глава 7
00:34:07.318: en:Глава 8
00:39:36.357: en:Глава 9
00:46:30.717: en:Глава 10
00:50:51.197: en:Глава 11
01:02:54.757: en:Глава 12
01:10:04.196: en:Глава 13
01:12:55.315: en:Глава 14

pb.wtf



Скачать Запретная кухня через торрент https://i111.fastpic.ru/big/2020/0509/7a/8135d4cf014de4cfa720879fa4cf897a.png Скачать фильм Запретная кухня через торрент бесплантно в хорошем качестве Описание: Эйбу 12 Он живет в Бруклине и обожает готовить. Но почти каждый ужин его еврейско-арабской семьи заканчивается дракой. Может ... 10 10 7
Торрент: Зарегистрирован [2020-05-09 19:30] · скачан: 109 раз
Статус: √ проверено
Размер: 2.85 GB
Как cкачать? Как скачать Запретная кухня через торрент | qTorrent

% Раздел Тема Автор DL S | L
Фильмы 2019-2020 [DVDrip, WEB-DLRip, HDrip] (DUB, MVO) [ 742 MB ] Запретная кухня / Abe [2019 WEB-DLRip] bober100 Скачать
1 | 0
Фильмы 2019-2020 [DVDrip, WEB-DLRip, HDrip] (DUB, MVO) [ 1.46 GB ] Запретная кухня / Abe [2019 WEB-DLRip] bober100 Скачать
1 | 0

28-11-2019 20:33  

Отключить всю рекламу на сайте

14-05-2020 03:46 Запретная кухня Скачать торрент  

смотреть можноpb.wtf



    Дорогой пользователь! Огромная просьба, поблагодарите релизера, оцените раздачу и оставьте свои комментарий, если Вы скачали Запретная кухня через торрент бесплатно! Внесите свою лепту в развитие PiratBit!
    Комментировать посты могут только пользователи прошедшие не сложную регистрацию
    Показать сообщения:    

    Запретная кухня через торрент
    Скачать бесплатно Запретная кухня
    Запретная кухня скачать торрент
    Запретная кухня смотреть онлайн
    Cкачать фильм Запретная кухня бесплатно
    Запретная кухня скачать торрент в хорошем качестве
    Запретная кухня смотреть онлайн бесплатно в хорошем качестве


    Вы не можете начинать темы
    Вы не можете отвечать на сообщения
    Вы не можете редактировать свои сообщения
    Вы не можете удалять свои сообщения
    Вы не можете голосовать в опросах
    Вы не можете прикреплять файлы к сообщениям
    Вы можете скачивать файлы