Ссылка на приватное зеркало нашего сайта всего за 1$. Внимание количество ограничено!!!

2 сезон

iTunes

1 сезон

1

iTunes

iTunes

iTunes

1 сезон

RePack

30

ИГРА 18+

pack

ВАЖНО

!!Акция!!

Alien_RageХит недели

RePack

MK11
pack

Забери бонус

RePack

jed

!!Акция!!

Alien_Rage

RePack

fifa19

RePack

Assassins Creed: Odyssey

RePack

NEED FOR SPEED™ PAYBACK

4 сезон

9 сезон

Бесстыжие 9 сезон

Все сериалы

все сериалы на PB.wtf

RePack

FAR CRY 5
  

Алеша / Серии: 1-4 из 4 (Юрий Попович) [2020, Военный, WEBRip 1080p] pb.wtf

Алеша через торрент pb.wtf

Размер: 8.41 GB | Добавлен: 5 мес. 15 д. назад | Торрент скачан:151 раз
Скачать  

09-05-2020 20:54 Алеша Скачать торрент  

Алеша
Год выпуска: 2020
Страна: Россия
Жанр: Военный, драма
Продолжительность: ~ 00:45:00
Субтитры: отсутствуют

Режиссер: Юрий Попович



В ролях: Владимир Епифанцев, Максим Сапрыкин, Анна Попова, Евгения Каверау, Илья Ясинский, Елисей Вдовиченко, Кирилл Новицкий, Игорь Денисов, Юрий Уткин, Игорь Карпиевич

Описание: По повести Ивана Пташникова «Найдорф». Лето 1944 года. Разгар Великой Отечественной войны. С одной стороны – отборные немецкие фронтовики, вышколенные солдаты самой опасной и безжалостной армии в мире. С другой – русские партизаны, измотанные, усталые, израненные, голодные, почти забывшие, что такое тепло родного дома, но твердо помнящие одно: за спиной – Родина, поэтому отступать – нельзя. Главные герои истории – пулеметчик Ефрем Жаворонок и совсем еще мальчик Алёша. Ему всего шестнадцать, и Ефим твёрдо знает: он должен нести ответственность за этого паренька, как за родного сына. Потому что на войне нет чужих детей, матерей, жён или братьев.

Качество: WEBRip 1080p
Формат: MKV

Видео: 1920х1080 (16:9), 25 fps, AVC MPEG-4 (x264), High@L4.1 ~ 6000 kbps avg, 0.116 bit/pixel
Аудио: 48.0 kHz, AC3 Dolby Digital, 2/0 (L,R) ch, ~ 192 kbps
скриншот  скриншот  скриншот  скриншот  

Общее
Уникальный идентификатор : 197661319402285570415298399004012162416 (0x94B42F759D263B728142AB5683D5AD70)
Полное имя : C:\Alesha.2020.WEB-DL.(1080p).ExKinoRay\Alesha.E01.2020.WEB-DL.(1080p).ExKinoRay.mkv
Формат : Matroska
Версия формата : Version 4
Размер файла : 2,07 Гбайт
Продолжительность : 48 м. 13 с.
Режим общего битрейта : Постоянный
Общий поток : 6147 Кбит/сек
Дата кодирования : UTC 2020-05-09 20:26:47
Программа кодирования : mkvmerge v6.9.1 ('Blue Panther') 64bit built on Apr 18 2014 18:23:38
Библиотека кодирования : libebml v1.3.0 + libmatroska v1.4.1

Видео
Идентификатор : 1
Формат : AVC
Формат/Информация : Advanced Video Codec
Профиль формата : High@L4.1
Настройки формата : 2 Ref Frames
Параметр CABAC формата : Нет
Параметр RefFrames формата : 2 кадра
Идентификатор кодека : V_MPEG4/ISO/AVC
Продолжительность : 48 м. 13 с.
Вид битрейта : Постоянный
Битрейт : 6000 Кбит/сек
Ширина : 1920 пикселей
Высота : 1080 пикселей
Соотношение сторон : 16:9
Режим частоты кадров : Постоянный
Частота кадров : 25,000 кадров/сек
Стандарт вещания : PAL
Цветовое пространство : YUV
Субдискретизация насыщенности : 4:2:0
Битовая глубина : 8 бит
Тип развёртки : Прогрессивная
Бит/(Пиксели*Кадры) : 0.116
Размер потока : 1,96 Гбайт (95%)
Default : Да
Forced : Нет
Цветовой диапазон : Limited
Основные цвета : BT.709
Характеристики трансфера : BT.709
Коэффициенты матрицы : BT.709

Аудио
Идентификатор : 2
Формат : AC-3
Формат/Информация : Audio Coding 3
Коммерческое название : Dolby Digital
Идентификатор кодека : A_AC3
Продолжительность : 48 м. 13 с.
Вид битрейта : Постоянный
Битрейт : 192 Кбит/сек
Каналы : 2 канала
ChannelLayout : L R
Частота : 48,0 КГц
Частота кадров : 31,250 кадров/сек (1536 SPF)
Битовая глубина : 16 бит
Метод сжатия : С потерями
Размер потока : 66,2 Мбайт (3%)
Язык : Russian
ServiceKind/String : Complete Main
Default : Да
Forced : Нет

pb.wtf



Скачать Алеша через торрент https://b.radikal.ru/b21/2005/7a/c943f858e084.jpg Скачать фильм Алеша через торрент бесплантно в хорошем качестве Описание: По повести Ивана Пташникова «Найдорф». Лето 1944 года. Разгар Великой Отечественной войны. С одной стороны – отборные немецкие ... 9.2 10 6
Торрент: Зарегистрирован [2020-05-09 20:54] · скачан: 151 раз
Статус: √ проверено
Размер: 8.41 GB
Как cкачать? Как скачать Алеша через торрент | qTorrent

% Раздел Тема Автор DL S | L
Наши сериалы [ 8.32 GB ] Алёша / Сезон: 1 / Серии: 1-4 из 4 [2020 военный WEB-DL 1080p] sokol_ok Скачать
7 | 0
Наши сериалы [ 2.99 GB ] Алёша / Сезон: 1 / Серии: 1-4 из 4 [2020 военный WEB-DLRip-AVC] sokol_ok Скачать
7 | 0
Наши сериалы [ 5.05 GB ] Алеша / Серии: 1-4 из 4 [2020 Военный WEBRip 720p] bober100 Скачать
2 | 0
Наши сериалы [ 3 GB ] Алеша / Серии: 1-4 из 4 [2020 Военный WEBRip-AVC] bober100 Скачать
1 | 0
Наши сериалы [ 2.46 GB ] Алеша / Серии: 1-4 из 4 [2020 Военный WEBRip] bober100 Скачать
1 | 0
Наши сериалы [ 2.3 GB ] Алёша / Серии: 1-4 из 4 [2020 военный SATRip-AVC] aleksan55 Скачать
1 | 0
Наши сериалы [ 2.54 GB ] Алеша / Серии: 1-4 из 4 [2020 Военный SATRip] bober100 Скачать
1 | 0

28-11-2019 20:33  

Отключить всю рекламу на сайте

    Дорогой пользователь! Огромная просьба, поблагодарите релизера, оцените раздачу и оставьте свои комментарий, если Вы скачали Алеша через торрент бесплатно! Внесите свою лепту в развитие PiratBit!
    Комментировать посты могут только пользователи прошедшие не сложную регистрацию
    Показать сообщения:    

    Алеша через торрент
    Скачать бесплатно Алеша
    Алеша скачать торрент
    Алеша смотреть онлайн
    Cкачать фильм Алеша бесплатно
    Алеша скачать торрент в хорошем качестве
    Алеша смотреть онлайн бесплатно в хорошем качестве


    Вы не можете начинать темы
    Вы не можете отвечать на сообщения
    Вы не можете редактировать свои сообщения
    Вы не можете удалять свои сообщения
    Вы не можете голосовать в опросах
    Вы не можете прикреплять файлы к сообщениям
    Вы можете скачивать файлы