2 сезон

iTunes

MVO

1

2 сезон

iTunes

iTunes

1 сезон

RePack

30

Новинка

ВАЖНО

ИГРА 18+

pack

RePack

MK11
pack

Легкие деньги

RePack

jed

RePack

fifa19

RePack

RDR2

RePack

NEED FOR SPEED™ PAYBACK

4 сезон

9 сезон

Бесстыжие 9 сезон

Все сериалы

все сериалы на PB.wtf

RePack

FAR CRY 5

Anonymous, добрый вечер, мы не успеваем собрать деньги на оплату серверов за декабрь и январь, помогите нам пожалуйста в это трудное время. В качестве благодарности мы отключим Вам всю рекламу на сайте (укажите свой ник в строку Ваше имя)!

×
  
Magnet ссылка

Неожиданный свидетель / A Witness Out of the Blue / Faan zeoi jin coeng (Эндрю Фун) [2019, Триллер, криминал, детектив BDRip 720p] MVO [Kolobok] - ExKinoRay pb.wtf

Неожиданный свидетель через торрент pb.wtf

Раздают: 3 [ 0 KB/s ] Качают: 1 [ 0 KB/s ]
Размер: 4.05 GB | Добавлен: 8 мес. назад | Торрент скачан:51 раз
Скачать  

10-05-2020 17:37 Неожиданный свидетель Скачать торрент  

Название: Неожиданный свидетель
Оригинальное название: Faan zeoi jin coeng (A Witness Out of the Blue)
Год выпуска: 2019
Жанр: Триллер, криминал, детектив
Режиссер: Эндрю Фун
В ролях: Луис Ку, Джессика Хестер Сюань, Луис Чхён, Патрик Там, Филип Кюн, Сэм Ли, Энди Он, Фиона Сит

Описание: Операция по обезвреживанию грабителей ювелирного магазина закончилась кровавой бойней, а главарь банды смог скрыться. Однако это станет только началом череды криминальных и запутанных событий, в которых не все так очевидно, как казалось полицейским на первый взгляд.



Выпущено: Гонконг, Media Asia Films
Продолжительность: 01:44:01
Перевод: Любительский многоголосый (КОЛОБОК)
Субтитры: Английские

Формат: MKV
Качество: BDRip 720p
Видео: MPEG-4 AVC, 1280x544 (2.35:1), 24.000 fps, 4737 Kbps, 0.283 bit/pixel
Аудио 1: 48 kHz, AC3, 2.0, 192 Kbps | RUS |
Аудио 2: 48 kHz, AC3, 5.1, 640 Kbps | CHI
General
Unique ID : 229786450651352013126913884154315606301 (0xACDF42B77E5B6C61BDEF69AC692F091D)
Complete name : C:\A.Witness.out.of.the.Blue.2019.720p.BluRay.ExKinoRay.mkv
Format : Matroska
Format version : Version 2
File size : 4.05 GiB
Duration : 1 h 44 min
Overall bit rate : 5 572 kb/s
Movie name : A Witness out of the Blue 2019 from ExKinoRay
Encoded date : UTC 2020-05-06 00:42:46
Writing application : mkvmerge v5.6.0 ('Kenya Kane') built on May 27 2012 16:44:04
Writing library : libebml v1.2.3 + libmatroska v1.3.0
Cover : Yes
Attachments : small_cover.jpg / small_cover_land.jpg / cover.jpg / cover_land.jpg

Video
ID : 1
Format : AVC
Format/Info : Advanced Video Codec
Format profile : High@L4.1
Format settings, CABAC : Yes
Format settings, ReFrames : 12 frames
Codec ID : V_MPEG4/ISO/AVC
Duration : 1 h 44 min
Bit rate : 4 737 kb/s
Width : 1 280 pixels
Height : 544 pixels
Display aspect ratio : 2.35:1
Frame rate mode : Constant
Frame rate : 24.000 FPS
Color space : YUV
Chroma subsampling : 4:2:0
Bit depth : 8 bits
Scan type : Progressive
Bits/(Pixel*Frame) : 0.283
Stream size : 3.36 GiB (83%)
Title : iKiW
Writing library : x264 core 129 r2245 bc13772
Encoding settings : cabac=1 / ref=12 / deblock=1:-3:-3 / analyse=0x3:0x133 / me=umh / subme=11 / psy=1 / psy_rd=0.80:0.00 / mixed_ref=1 / me_range=32 / chroma_me=1 / trellis=2 / 8x8dct=1 / cqm=0 / deadzone=21,11 / fast_pskip=0 / chroma_qp_offset=-2 / threads=12 / lookahead_threads=2 / sliced_threads=0 / nr=0 / decimate=1 / interlaced=0 / bluray_compat=0 / constrained_intra=0 / bframes=10 / b_pyramid=2 / b_adapt=2 / b_bias=0 / direct=3 / weightb=1 / open_gop=0 / weightp=2 / keyint=250 / keyint_min=24 / scenecut=40 / intra_refresh=0 / rc_lookahead=60 / rc=2pass / mbtree=1 / bitrate=4737 / ratetol=1.0 / qcomp=0.60 / qpmin=0 / qpmax=69 / qpstep=4 / cplxblur=20.0 / qblur=0.5 / ip_ratio=1.40 / aq=1:0.80
Language : English
Default : Yes
Forced : No

Audio #1
ID : 2
Format : AC-3
Format/Info : Audio Coding 3
Mode extension : CM (complete main)
Format settings, Endianness : Big
Codec ID : A_AC3
Duration : 1 h 44 min
Bit rate mode : Constant
Bit rate : 192 kb/s
Channel(s) : 2 channels
Channel positions : Front: L R
Sampling rate : 48.0 kHz
Frame rate : 31.250 FPS (1536 spf)
Compression mode : Lossy
Stream size : 143 MiB (3%)
Title : MVO (Kolobok)
Language : Russian
Default : Yes
Forced : No

Audio #2
ID : 3
Format : AC-3
Format/Info : Audio Coding 3
Mode extension : CM (complete main)
Format settings, Endianness : Big
Codec ID : A_AC3
Duration : 1 h 44 min
Bit rate mode : Constant
Bit rate : 640 kb/s
Channel(s) : 6 channels
Channel positions : Front: L C R, Side: L R, LFE
Sampling rate : 48.0 kHz
Frame rate : 31.250 FPS (1536 spf)
Compression mode : Lossy
Stream size : 476 MiB (11%)
Title : 粤语
Language : Chinese
Default : No
Forced : No

Text
ID : 4
Format : UTF-8
Codec ID : S_TEXT/UTF8
Codec ID/Info : UTF-8 Plain Text
Language : English
Default : No
Forced : No


Релиз от:

Автор релиза: pb.wtf



Скачать Неожиданный свидетель через торрент https://d.radikal.ru/d37/2005/c5/39f603c1c810.jpg Скачать фильм Неожиданный свидетель через торрент бесплантно в хорошем качестве Описание: Операция по обезвреживанию грабителей ювелирного магазина закончилась кровавой бойней, а главарь банды смог скрыться. Однако ... 5 10 1
Info! Золотая раздача, скачанное не засчитывается.
Торрент: Зарегистрирован [2020-05-10 17:37] · скачан: 51 раз
Статус: √ проверено
Размер: 4.05 GB
Как cкачать? Как скачать Неожиданный свидетель через торрент | UTorrent

28-11-2019 20:33  

Отключить всю рекламу на сайте

    Дорогой пользователь! Огромная просьба, поблагодарите релизера, оцените раздачу и оставьте свои комментарий, если Вы скачали Неожиданный свидетель через торрент бесплатно! Внесите свою лепту в развитие PiratBit!
    Комментировать посты могут только пользователи прошедшие не сложную регистрацию
    Показать сообщения:    

    Неожиданный свидетель через торрент
    Скачать бесплатно Неожиданный свидетель
    Неожиданный свидетель скачать торрент
    Неожиданный свидетель смотреть онлайн
    Cкачать фильм Неожиданный свидетель бесплатно
    Неожиданный свидетель скачать торрент в хорошем качестве
    Неожиданный свидетель смотреть онлайн бесплатно в хорошем качестве


    Вы не можете начинать темы
    Вы не можете отвечать на сообщения
    Вы не можете редактировать свои сообщения
    Вы не можете удалять свои сообщения
    Вы не можете голосовать в опросах
    Вы не можете прикреплять файлы к сообщениям
    Вы можете скачивать файлы