Ссылка на приватное зеркало нашего сайта всего за 1$. Внимание количество ограничено!!!

2 сезон

iTunes

1 сезон

1

iTunes

iTunes

iTunes

1 сезон

RePack

30

ИГРА 18+

pack

ВАЖНО

!!Акция!!

Alien_RageХит недели

RePack

MK11
pack

Забери бонус

RePack

jed

!!Акция!!

Alien_Rage

RePack

fifa19

RePack

Assassins Creed: Odyssey

RePack

NEED FOR SPEED™ PAYBACK

4 сезон

9 сезон

Бесстыжие 9 сезон

Все сериалы

все сериалы на PB.wtf

RePack

FAR CRY 5
  

Дед Морозов / Серии: 1-4 из 4 (Юрий Попович) [2020, Военный, WEBRip] pb.wtf

Дед Морозов через торрент pb.wtf

Размер: 2.48 GB | Добавлен: 5 мес. 17 д. назад | Торрент скачан:81 раз
Скачать  

10-05-2020 19:50 Дед Морозов Скачать торрент  

Дед Морозов Год выпуска: 2020
Страна: Россия
Жанр: Военный
Продолжительность: ~ 00:47:00
Перевод: Не требуется
Субтитры: отсутствуют

Режиссер: Юрий Попович



В ролях: Аристарх Ливанов, Николай Шестак, Евгений Морозов, Нино Кантария, Эммануил Виторган, Алла Пролич, Максим Сапрыкин, Филипп Рейнхардт, Сергей Юревич (II), Валентина Гарцуева, Андрей Олиференко, Александр Тарасов (V), Ибад Гагибадзе, Олег Бабуль, Максим Дубовский, Максим Брагинец, Святослав Астрамович, Эльдар Данильчик, Кирилл Новицкий, Игорь Карпиевич

Описание: Сериал основан на реальных событиях: это история о человеке, который ушёл на фронт 87-летним стариком. За спиной у него была подготовка покушения на Александра II, царские тюрьмы. А впереди – окопы, пули, кровь и гибель товарищей, жизни которых на войне становятся дороже, чем собственная… Николай Александрович Морозов – личность историческая. Он прожил долгую жизнь: был и революционером, и террористом. Его приговорили к пожизненной каторге, около тридцати лет он провёл в царских тюрьмах. Начало Великой Отечественной Войны Николай Александрович встретил уже глубоким стариком. Однако, когда понял, что нужен Родине, ушёл добровольцем на фронт. На тот момент ему исполнилось 87 лет. Однако история Морозова – это история не столько о войне, сколько о раскаянии и покаянии, потому что под конец жизни Морозов чувствовал вину за то, что натворил в юности…

Качество: WEBRip
Формат: AVI

Видео: XviD, 1600 Кбит/с, 720x400, 25 кадр/с
Аудио: 48.0 kHz, AC3 Dolby Digital, 2/0 (L,R) ch, ~ 192 kbps
скриншот  скриншот  скриншот  скриншот  скриншот  

Общее
Полное имя : C:\Дед Морозов..2020.WEB-DLRip.Files-x\ 01. Дед Морозов..2020.WEB-DLRip.Files-x.avi
Формат : AVI
Формат/Информация : Audio Video Interleave
Размер файла : 634 Мбайт
Продолжительность : 49 м. 13 с.
Общий поток : 1802 Кбит/сек
Программа кодирования : VirtualDubMod 1.5.10.3 | www.virtualdub-fr.org || (build 2550/release)
Библиотека кодирования : VirtualDubMod build 2550/release

Видео
Идентификатор : 0
Формат : MPEG-4 Visual
Профиль формата : Advanced Simple@L5
Настройки формата : BVOP1 / Custom Matrix
Параметр BVOP формата : 1
Параметр QPel формата : Нет
Параметр GMC формата : Без точки перехода
Параметр матрицы формата : Выборочная
Идентификатор кодека : XVID
Идентификатор кодека/Подсказка : XviD
Продолжительность : 49 м. 13 с.
Битрейт : 1529 Кбит/сек
Ширина : 720 пикселей
Высота : 400 пикселей
Соотношение сторон : 16:9
Частота кадров : 25,000 кадров/сек
Цветовое пространство : YUV
Субдискретизация насыщенности : 4:2:0
Битовая глубина : 8 бит
Тип развёртки : Прогрессивная
Метод сжатия : С потерями
Бит/(Пиксели*Кадры) : 0.212
Размер потока : 539 Мбайт (85%)
Библиотека кодирования : XviD 73

Аудио
Идентификатор : 1
Формат : AC-3
Формат/Информация : Audio Coding 3
Коммерческое название : Dolby Digital
Идентификатор кодека : 2000
Продолжительность : 49 м. 13 с.
Вид битрейта : Постоянный
Битрейт : 192 Кбит/сек
Каналы : 2 канала
ChannelLayout : L R
Частота : 48,0 КГц
Частота кадров : 31,250 кадров/сек (1536 SPF)
Битовая глубина : 16 бит
Метод сжатия : С потерями
Размер потока : 67,6 Мбайт (11%)
Выравнивание : Разделение по промежуткам
ServiceKind/String : Complete Main

pb.wtf



Скачать Дед Морозов через торрент https://i111.fastpic.ru/big/2020/0510/29/7fcb4bb90965c02421bea09097740b29.jpg Скачать фильм Дед Морозов через торрент бесплантно в хорошем качестве Описание: Сериал основан на реальных событиях: это история о человеке, который ушёл на фронт 87-летним стариком. За спиной у него была ... 8.6 10 7
Торрент: Зарегистрирован [2020-05-11 02:33] · скачан: 81 раз
Статус: √ проверено
Размер: 2.48 GB
Как cкачать? Как скачать Дед Морозов через торрент | qTorrent

% Раздел Тема Автор DL S | L
Наши сериалы [ 5.08 GB ] Дед Морозов / Серии: 1-4 из 4 [2020 Военный WEBRip 720p] bober100 Скачать
1 | 0
Наши сериалы [ 3.02 GB ] Дед Морозов / Серии: 1-4 из 4 [2020 Военный WEBRip-AVC] bober100 Скачать
2 | 0
Наши сериалы [ 8.46 GB ] Дед Морозов / Серии: 1-4 из 4 [2020 Военный WEBRip 1080p] bober100 Скачать
1 | 0
Наши сериалы [ 2.31 GB ] Дед Морозов / Серии: 1-4 из 4 [2020 военный SATRip-AVC] aleksan55 Скачать
1 | 0
Наши сериалы [ 2.55 GB ] Дед Морозов / Серии: 1-4 из 4 [2020 Военный SATRip] bober100 Скачать
1 | 0
Наши сериалы [ 2.18 GB ] Когда папа Дед Мороз! / Серии: 1-4 из 4 [2017 Мело WEB-DLRip] bober100 Скачать
1 | 0

28-11-2019 20:33  

Отключить всю рекламу на сайте

    Дорогой пользователь! Огромная просьба, поблагодарите релизера, оцените раздачу и оставьте свои комментарий, если Вы скачали Дед Морозов через торрент бесплатно! Внесите свою лепту в развитие PiratBit!
    Комментировать посты могут только пользователи прошедшие не сложную регистрацию
    Показать сообщения:    

    Дед Морозов через торрент
    Скачать бесплатно Дед Морозов
    Дед Морозов скачать торрент
    Дед Морозов смотреть онлайн
    Cкачать фильм Дед Морозов бесплатно
    Дед Морозов скачать торрент в хорошем качестве
    Дед Морозов смотреть онлайн бесплатно в хорошем качестве


    Вы не можете начинать темы
    Вы не можете отвечать на сообщения
    Вы не можете редактировать свои сообщения
    Вы не можете удалять свои сообщения
    Вы не можете голосовать в опросах
    Вы не можете прикреплять файлы к сообщениям
    Вы можете скачивать файлы