Ссылка на приватное зеркало нашего сайта всего за 1$. Внимание количество ограничено!!!

2 сезон

iTunes

1 сезон

1

iTunes

iTunes

iTunes

1 сезон

RePack

30

ИГРА 18+

pack

ВАЖНО

!!Акция!!

Alien_RageХит недели

RePack

MK11
pack

Забери бонус

RePack

jed

!!Акция!!

Alien_Rage

RePack

fifa19

RePack

Assassins Creed: Odyssey

RePack

NEED FOR SPEED™ PAYBACK

4 сезон

9 сезон

Бесстыжие 9 сезон

Все сериалы

все сериалы на PB.wtf

RePack

FAR CRY 5
  

Динозавр / Сезон: 2 / Серии: 1-10 из 10 (Влад Николаев, Эдуард Малхасьян, Олег Компасов) [2020, Криминал, комедия, SATRip] pb.wtf

Динозавр через торрент pb.wtf

Размер: 6.48 GB | Добавлен: 5 мес. 12 д. назад | Торрент скачан:58 раз
Скачать  

11-05-2020 12:19 Динозавр Скачать торрент  

Динозавр Год выпуска: 2020
Страна: Россия
Жанр: Криминал, комедия
Продолжительность: ~ 00:45:00
Субтитры: отсутствуют

Режиссер: Влад Николаев, Эдуард Малхасьян, Олег Компасов



В ролях: Андрей Смирнов, Александр Панкратов-Чёрный, Евгений Миллер, Анна Васильева, Галина Петрова, Валерий Баринов, Михаил Жигалов, Александр Олешко, Вольфганг Черни, Марина Соколова

Описание: В центре сюжета нового сезона – «медвежатник» Семён Бабушкин по прозвищу Бриллиант и его верный друг Дмитрий Крылов, более известный как Басня. Бабушкин (Андрей Смирнов), купив загородный дом, занимается любимым делом – ловит рыбу. Ему предлагают стать консультантом СК, но он отказывается: одно дело спасать внучку и сына, а другое – работать на «систему». Но вот ему звонит Басня (Александр Панкратов-Чёрный) и говорит, что есть «заказ»: с помощью отмычек он открывает железную дверь со сложным замком. Бабушкин вновь взялся за старое? Нет! Вместе с Басней они окрыли свою фирму по вскрытию дверей, но спокойная жизнь им только снится, и герои попадают в новый круговорот приключений.

Качество: SATRip
Формат: AVI

Видео: XviD,~ 1800 Кбит/с, 720x400, 25 Кадр/с
Аудио: 48.0 kHz, AC3 Dolby Digital, 2/0 (L,R) ch, ~ 192 kbps
скриншот  скриншот  скриншот  скриншот  

Общее
Полное имя : C:\Dinozavr.S02.2019.XviD.SATRip.ExKinoRay\Dinozavr.S02.E01.2019.XviD.SATRip.ExKinoRay.avi
Формат : AVI
Формат/Информация : Audio Video Interleave
Размер файла : 647 Мбайт
Продолжительность : 45 м. 11 с.
Общий поток : 2001 Кбит/сек

Видео
Идентификатор : 0
Формат : MPEG-4 Visual
Профиль формата : Advanced Simple@L5
Настройки формата : BVOP1 / Custom Matrix
Параметр BVOP формата : 1
Параметр QPel формата : Нет
Параметр GMC формата : Без точки перехода
Параметр матрицы формата : Выборочная
Идентификатор кодека : XVID
Идентификатор кодека/Подсказка : XviD
Продолжительность : 45 м. 11 с.
Битрейт : 1798 Кбит/сек
Ширина : 720 пикселей
Высота : 400 пикселей
Соотношение сторон : 16:9
Частота кадров : 25,000 кадров/сек
Цветовое пространство : YUV
Субдискретизация насыщенности : 4:2:0
Битовая глубина : 8 бит
Тип развёртки : Прогрессивная
Метод сжатия : С потерями
Бит/(Пиксели*Кадры) : 0.250
Размер потока : 581 Мбайт (90%)
Библиотека кодирования : XviD 73

Аудио
Идентификатор : 1
Формат : AC-3
Формат/Информация : Audio Coding 3
Коммерческое название : Dolby Digital
Идентификатор кодека : 2000
Продолжительность : 45 м. 11 с.
Продолжительность оригинала : 45 м. 11 с.
Вид битрейта : Постоянный
Битрейт : 192 Кбит/сек
Каналы : 2 канала
ChannelLayout : L R
Частота : 48,0 КГц
Частота кадров : 31,250 кадров/сек (1536 SPF)
Битовая глубина : 16 бит
Метод сжатия : С потерями
Размер потока : 62,1 Мбайт (10%)
Выравнивание : Соединение по промежуткам
Продолжительность промежутка : 32 мс. (0,80 видеокадр)
ServiceKind/String : Complete Main

Внимание! Раздача ведётся путём добавления новых серий; при каждом добавлении создаётся новый торрент.
Чтобы начать докачку новой серии, пользователям необходимо сделать следующее:
1. Остановить скачивание;
2. Удалить старый торрент у себя из клиента (старые серии удалять не надо);
3. Скачать новый торрент и запустить его у себя в клиенте вместо старого, при этом указать клиенту путь в старую папку куда и должно происходить скачивание новых серий. Ваш клиент при этом должен произвести хеширование (проверку) старой папки и будет докачивать только те серии, которых у вас ещё нет. Старые серии при этом не удаляются, а продолжают раздаваться! Eсли вы уже удалили старые серии, то предотвратить повторную закачку старых серий можно, отжав галочку в соответствующих местах при запуске нового торрента.
pb.wtf



Скачать Динозавр через торрент http://img11.lostpic.net/2018/10/08/aa71884e69747df4e7c5f037527a3f9a.jpg Скачать фильм Динозавр через торрент бесплантно в хорошем качестве Описание: В центре сюжета нового сезона – «медвежатник» Семён Бабушкин по прозвищу Бриллиант и его верный друг Дмитрий Крылов, более ... 9.3 10 13
Торрент: Зарегистрирован [2020-05-15 13:26] · скачан: 58 раз
Статус: √ проверено
Размер: 6.48 GB
Как cкачать? Как скачать Динозавр через торрент | qTorrent

% Раздел Тема Автор DL S | L
Наши сериалы [ 5.89 GB ] Динозавр / Сезон: 2 / Серии: 1-10 из 10 [2020 WEBRip] bober100 Скачать
2 | 0
Наши сериалы [ 12.07 GB ] Динозавр / Сезон: 2 / Серии: 1-10 из 10 [2020 WEBRip 720p] bober100 Скачать
1 | 0
Наши сериалы [ 7.16 GB ] Динозавр / Сезон: 2 / Серии: 1-10 из 10 [2020 WEBRip-AVC] bober100 Скачать
1 | 0
Наши сериалы [ 20.07 GB ] Динозавр / Сезон: 2 / Серии: 1-10 из 10 [2020 WEBRip 1080p] bober100 Скачать
2 | 0
Наши сериалы [ 5.56 GB ] Динозавр / Сезон: 2 / Серии: 1-10 из 10 [2020 SATRip-AVC] aleksan55 Скачать
3 | 0

28-11-2019 20:33  

Отключить всю рекламу на сайте

    Дорогой пользователь! Огромная просьба, поблагодарите релизера, оцените раздачу и оставьте свои комментарий, если Вы скачали Динозавр через торрент бесплатно! Внесите свою лепту в развитие PiratBit!
    Комментировать посты могут только пользователи прошедшие не сложную регистрацию
    Показать сообщения:    

    Динозавр через торрент
    Скачать бесплатно Динозавр
    Динозавр скачать торрент
    Динозавр смотреть онлайн
    Cкачать фильм Динозавр бесплатно
    Динозавр скачать торрент в хорошем качестве
    Динозавр смотреть онлайн бесплатно в хорошем качестве


    Вы не можете начинать темы
    Вы не можете отвечать на сообщения
    Вы не можете редактировать свои сообщения
    Вы не можете удалять свои сообщения
    Вы не можете голосовать в опросах
    Вы не можете прикреплять файлы к сообщениям
    Вы можете скачивать файлы