Ссылка на приватное зеркало нашего сайта всего за 1$. Внимание количество ограничено!!!

2 сезон

iTunes

1 сезон

1

iTunes

iTunes

iTunes

1 сезон

RePack

30

ИГРА 18+

pack

ВАЖНО

!!Акция!!

Alien_RageХит недели

RePack

MK11
pack

Забери бонус

RePack

jed

!!Акция!!

Alien_Rage

RePack

fifa19

RePack

Assassins Creed: Odyssey

RePack

NEED FOR SPEED™ PAYBACK

4 сезон

9 сезон

Бесстыжие 9 сезон

Все сериалы

все сериалы на PB.wtf

RePack

FAR CRY 5
  

Катя и Блэк / Сезон: 1 / Серии: 1-8 из 8 (Гузэль Киреева) [2020, Детектив, HDTVRip] pb.wtf

Катя и Блэк через торрент pb.wtf

Размер: 5.18 GB | Добавлен: 5 мес. 3 д. назад | Торрент скачан:51 раз
Скачать  

11-05-2020 16:40 Катя и Блэк Скачать торрент  

Катя и Блэк
Год выпуска: 2020
Страна: Россия
Жанр: Детектив
Продолжительность: ~ 00:50:00
Субтитры: отсутствуют

Режиссер: Гузэль Киреева

В ролях: Юлия Мельникова, Дмитрий Ратомский, Сергей Громов, Никита Абдулов, Марина Дровосекова, Армен Арушанян, Борис Щербаков, Маргарита Бугаева, Константин Милованов, Анатолий Голуб, Михаил Евланов, Владимир Кошевой, Владимир Юматов, Степан Абрамов, Александр Бобров, Александр Гунькин, Александр Красовский, Алёна Новицкая, Ян Хуснояров, Дэвид Аласания, Вероника Волоха, Александр Никольский, Наталья Жернакова, Герман Сегал, Михаил Куряев, Ангелина Поплавская, Серафима Смолина, Пётр Снякин, Даниил Зайцев, Олег Кассин, Владислав Янушенок

Описание: Капитан полиции Екатерина Шатрова, рискуя жизнью, помогает в поимке серийного убийцы Котова. Однако у преступника на свободе остался жестокий подельник, который начинает выслеживать Шатрову, чтобы отомстить. К счастью, Катю переводят в областной центр, где она возглавляет группу оперативников, состоящую из брутального капитана Андрея Веселова, интеллектуала Василия Савчука и эксперта-криминалиста Арины Соболь. Но, главное, что волею случая в жизни Кати появляется умный и самоотверженный пес по кличке Блэк. Обаятельный золотистый ретривер начинает помогать своей новой хозяйке в расследованиях. Вместе они раскрывают множество сложных дел, и каждый раз Блэк оказывается «на высоте», находя важные улики, выслеживая насильников, похитителей и убийц, а также охраняя Катину дочь Лизу… Но окажется ли Блэк рядом с Катей, когда ей самой понадобится помощь…

Качество: HDTVRip
Формат: AVI

Видео: XviD, ~ 1600 Кбит/с, 720x400, 25 кадр/с
Аудио: 48.0 kHz, AC3 Dolby Digital, 2/0 (L,R) ch, ~ 192 kbps
скриншот  скриншот  скриншот  скриншот  

Общее
Полное имя : D:Katja i Bljek.HDTVRip.GeneralFilm1.Katja i Bljek.HDTVRip.GeneralFilm.avi
Формат : AVI
Формат/Информация : Audio Video Interleave
Размер файла : 660 Мбайт
Продолжительность : 51 м.
Общий поток : 1803 Кбит/сек

Видео
Идентификатор : 0
Формат : MPEG-4 Visual
Профиль формата : Advanced Simple@L5
Параметр BVOP формата : 1
Параметр QPel формата : Нет
Параметр GMC формата : Без точки перехода
Параметр матрицы формата : Выборочная
Идентификатор кодека : XVID
Идентификатор кодека/Подсказка : XviD
Продолжительность : 51 м.
Битрейт : 1599 Кбит/сек
Ширина : 720 пикселей
Высота : 400 пикселей
Соотношение сторон : 16:9
Частота кадров : 25,000 кадров/сек
Цветовое пространство : YUV
Субдискретизация насыщенности : 4:2:0
Битовая глубина : 8 бит
Тип развёртки : Прогрессивная
Метод сжатия : С потерями
Бит/(Пиксели*Кадры) : 0.222
Размер потока : 585 Мбайт (89%)
Библиотека кодирования : XviD 1.2.1 (UTC 2008-12-04)

Аудио
Идентификатор : 1
Формат : AC-3
Формат/Информация : Audio Coding 3
Расширение режима : CM (complete main)
Параметр Endianness формата : Big
Идентификатор кодека : 2000
Продолжительность : 51 м.
Вид битрейта : Постоянный
Битрейт : 192 Кбит/сек
Каналы : 2 канала
Расположение каналов : Front: L R
Частота : 48,0 КГц
Битовая глубина : 16 бит
Метод сжатия : С потерями
Размер потока : 70,3 Мбайт (11%)
Выравнивание : Соединение по промежуткам
Продолжительность промежутка : 32 мс. (0,80 видеокадр)

Когда раздача ведётся путём добавления новых серий, при каждом добавлении создётся новый торрент. Чтобы начать докачку новой серии, пользователям необходимо сделать следующее:
(1) остановить скачивание,
(2) удалить старый торрент у себя из клиента (старые серии удалять не надо),
(3) скачать новый торрент и запустить его у себя в клиенте вместо старого, при этом указать клиенту путь в старую папку, куда и должно происходить скачивание новых серий.
Ваш клиент при этом должен произвести хеширование (проверку) старой папки (если не производит сам - помогите ему сделать это), и будет докачивать только те серии, которых у вас ещё нет. Старые серии при этом не удаляются, а продолжают раздаваться!
Eсли вы уже удалили старые серии, то предотвратить повторную закачку старых серий можно, отжав галочку в соответсвующих местах при запуске нового торрента. По возможности, желательно не удалять старые серии как можно дольше, чтобы релизер не столько продолжал раздавать старые серии, а смог сконцентрироваться на новых.
pb.wtf



Скачать Катя и Блэк через торрент http://i111.fastpic.ru/big/2020/0511/ac/d38ff18f0696e95e46733b5f763ac8ac.jpg Скачать фильм Катя и Блэк через торрент бесплантно в хорошем качестве Описание: Капитан полиции Екатерина Шатрова, рискуя жизнью, помогает в поимке серийного убийцы Котова. Однако у преступника на свободе ... 8.2 10 5
Торрент: Зарегистрирован [2020-05-21 16:47] · скачан: 51 раз
Статус: √ проверено
Размер: 5.18 GB
Как cкачать? Как скачать Катя и Блэк через торрент | qTorrent

% Раздел Тема Автор DL S | L
Наши сериалы [ 6.31 GB ] Катя и Блэк / Сезон: 1 / Серии: 1-8 из 8 [2020 HDTVRip-AVC] bober100 Скачать
1 | 0
Наши сериалы [ 10.62 GB ] Катя и Блэк / Сезон: 1 / Серии: 1-8 из 8 [2020 HDTVRip 720p] bober100 Скачать
1 | 0
Наши сериалы [ 19.2 GB ] Катя и Блэк / Сезон: 1 / Серии: 1-8 из 8 [2020 HDTV 1080i] bober100 Скачать
1 | 0
Наши сериалы [ 697 MB ] Катя и Блэк / Сезон: 1 / Серии: 1- из 8 [2020 SATRip] bober100 Скачать
1 | 0

28-11-2019 20:33  

Отключить всю рекламу на сайте

    Дорогой пользователь! Огромная просьба, поблагодарите релизера, оцените раздачу и оставьте свои комментарий, если Вы скачали Катя и Блэк через торрент бесплатно! Внесите свою лепту в развитие PiratBit!
    Комментировать посты могут только пользователи прошедшие не сложную регистрацию
    Показать сообщения:    

    Катя и Блэк через торрент
    Скачать бесплатно Катя и Блэк
    Катя и Блэк скачать торрент
    Катя и Блэк смотреть онлайн
    Cкачать фильм Катя и Блэк бесплатно
    Катя и Блэк скачать торрент в хорошем качестве
    Катя и Блэк смотреть онлайн бесплатно в хорошем качестве


    Вы не можете начинать темы
    Вы не можете отвечать на сообщения
    Вы не можете редактировать свои сообщения
    Вы не можете удалять свои сообщения
    Вы не можете голосовать в опросах
    Вы не можете прикреплять файлы к сообщениям
    Вы можете скачивать файлы