Ссылка на приватное зеркало всего за 1$. Внимание количество ограничено!!!

iTunes

iTunes

iTunes

1

iTunes

iTunes

iTunes

iTunes

iTunes

30
pack

$ от Little Big

ВАЖНО

!!Акция!!

Alien_RageХит недели

RePack

Resident Evil 21

ИГРА 18+

pack

RePack

jed

!!Акция!!

Alien_Rage

RePack

fifa19

RePack

Assassins Creed: Odyssey

RePack

NEED FOR SPEED™ PAYBACK

4 сезон

9 сезон

Бесстыжие 9 сезон

Все сериалы

все сериалы на PB.wtf

RePack

FAR CRY 5
  

Динозавр / Сезон: 2 / Серии: 1-10 из 10 (Влад Николаев, Эдуард Малхасьян, Олег Компасов) [2020, Криминал, комедия, WEBRip] pb.wtf

Динозавр через торрент pb.wtf

Размер: 5.89 GB | Добавлен: 10 д. назад | Торрент скачан:18 раз
Скачать  

11-05-2020 19:16 Динозавр Скачать торрент  

Динозавр Год выпуска: 2020
Страна: Россия
Жанр: Криминал, комедия
Продолжительность: ~ 00:45:00
Субтитры: отсутствуют

Режиссер: Влад Николаев, Эдуард Малхасьян, Олег Компасов



В ролях: Андрей Смирнов, Александр Панкратов-Чёрный, Евгений Миллер, Анна Васильева, Галина Петрова, Валерий Баринов, Михаил Жигалов, Александр Олешко, Вольфганг Черни, Марина Соколова

Описание: В центре сюжета нового сезона – «медвежатник» Семён Бабушкин по прозвищу Бриллиант и его верный друг Дмитрий Крылов, более известный как Басня. Бабушкин (Андрей Смирнов), купив загородный дом, занимается любимым делом – ловит рыбу. Ему предлагают стать консультантом СК, но он отказывается: одно дело спасать внучку и сына, а другое – работать на «систему». Но вот ему звонит Басня (Александр Панкратов-Чёрный) и говорит, что есть «заказ»: с помощью отмычек он открывает железную дверь со сложным замком. Бабушкин вновь взялся за старое? Нет! Вместе с Басней они окрыли свою фирму по вскрытию дверей, но спокойная жизнь им только снится, и герои попадают в новый круговорот приключений.

Качество: WEBRip
Формат: AVI

Видео: XviD, ~ 1600 Кбит/с, 720x400
Аудио: 48.0 kHz, AC3 Dolby Digital, 2/0 (L,R) ch, ~ 192 kbps
скриншот  скриншот  скриншот  скриншот  скриншот  

General
Complete name : H:\fiiles x\Динозавр .2020.WEB-DLRip.Files-x\01. Динозавр .2020.WEB-DLRip.Files-x.avi
Format : AVI
Format/Info : Audio Video Interleave
File size : 588 MiB
Duration : 45mn 36s
Overall bit rate : 1 802 Kbps
Writing application : VirtualDubMod 1.5.10.3 | www.virtualdub-fr.org || (build 2550/release)
Writing library : VirtualDubMod build 2550/release

Video
ID : 0
Format : MPEG-4 Visual
Format profile : Advanced Simple@L5
Format settings, BVOP : 1
Format settings, QPel : No
Format settings, GMC : No warppoints
Format settings, Matrix : Custom
Codec ID : XVID
Codec ID/Hint : XviD
Duration : 45mn 36s
Bit rate : 1 600 Kbps
Width : 720 pixels
Height : 400 pixels
Display aspect ratio : 16:9
Frame rate : 25.000 fps
Color space : YUV
Chroma subsampling : 4:2:0
Bit depth : 8 bits
Scan type : Progressive
Compression mode : Lossy
Bits/(Pixel*Frame) : 0.222
Stream size : 522 MiB (89%)
Writing library : XviD 73

Audio
ID : 1
Format : AC-3
Format/Info : Audio Coding 3
Mode extension : CM (complete main)
Codec ID : 2000
Duration : 45mn 36s
Bit rate mode : Constant
Bit rate : 192 Kbps
Channel(s) : 2 channels
Channel positions : Front: L R
Sampling rate : 48.0 KHz
Bit depth : 16 bits
Compression mode : Lossy
Stream size : 62.6 MiB (11%)
Alignment : Split accross interleaves
Interleave, duration : 40 ms (1.00 video frame)
Interleave, preload duration : 500 ms

Внимание! Раздача ведётся путём добавления новых серий; при каждом добавлении создаётся новый торрент.
Чтобы начать докачку новой серии, пользователям необходимо сделать следующее:
1. Остановить скачивание;
2. Удалить старый торрент у себя из клиента (старые серии удалять не надо);
3. Скачать новый торрент и запустить его у себя в клиенте вместо старого, при этом указать клиенту путь в старую папку куда и должно происходить скачивание новых серий. Ваш клиент при этом должен произвести хеширование (проверку) старой папки и будет докачивать только те серии, которых у вас ещё нет. Старые серии при этом не удаляются, а продолжают раздаваться! Eсли вы уже удалили старые серии, то предотвратить повторную закачку старых серий можно, отжав галочку в соответствующих местах при запуске нового торрента.
pb.wtf



Скачать Динозавр через торрент http://img11.lostpic.net/2018/10/08/aa71884e69747df4e7c5f037527a3f9a.jpg Скачать фильм Динозавр через торрент бесплантно в хорошем качестве Описание: В центре сюжета нового сезона – «медвежатник» Семён Бабушкин по прозвищу Бриллиант и его верный друг Дмитрий Крылов, более ... 10 10 10
Торрент: Зарегистрирован [2020-05-22 17:16] · скачан: 18 раз
Статус: √ проверено
Размер: 5.89 GB
Как cкачать? Как скачать Динозавр через торрент | qTorrent

% Раздел Тема Автор DL S | L
Наши сериалы [ 12.07 GB ] Динозавр / Сезон: 2 / Серии: 1-10 из 10 [2020 WEBRip 720p] bober100 Скачать
3 | 0
Наши сериалы [ 7.16 GB ] Динозавр / Сезон: 2 / Серии: 1-10 из 10 [2020 WEBRip-AVC] bober100 Скачать
1 | 0
Наши сериалы [ 20.07 GB ] Динозавр / Сезон: 2 / Серии: 1-10 из 10 [2020 WEBRip 1080p] bober100 Скачать
2 | 0
Наши сериалы [ 5.56 GB ] Динозавр / Сезон: 2 / Серии: 1-10 из 10 [2020 SATRip-AVC] aleksan55 Скачать
4 | 1
Наши сериалы [ 6.48 GB ] Динозавр / Сезон: 2 / Серии: 1-10 из 10 [2020 SATRip] bober100 Скачать
3 | 0

28-11-2019 20:33  

Отключить всю рекламу на сайте

22-05-2020 17:41 Динозавр Скачать торрент  

Пропаганда гомосексуализма в России разве не запрещена?pb.wtf



    Дорогой пользователь! Огромная просьба, поблагодарите релизера, оцените раздачу и оставьте свои комментарий, если Вы скачали Динозавр через торрент бесплатно! Внесите свою лепту в развитие PiratBit!
    Комментировать посты могут только пользователи прошедшие не сложную регистрацию
    Показать сообщения:    

    Динозавр через торрент
    Скачать бесплатно Динозавр
    Динозавр скачать торрент
    Динозавр смотреть онлайн
    Cкачать фильм Динозавр бесплатно
    Динозавр скачать торрент в хорошем качестве
    Динозавр смотреть онлайн бесплатно в хорошем качестве


    Вы не можете начинать темы
    Вы не можете отвечать на сообщения
    Вы не можете редактировать свои сообщения
    Вы не можете удалять свои сообщения
    Вы не можете голосовать в опросах
    Вы не можете прикреплять файлы к сообщениям
    Вы можете скачивать файлы