Ссылка на приватное зеркало всего за 1$. Внимание количество ограничено!!!

iTunes

iTunes

iTunes

1

iTunes

iTunes

iTunes

iTunes

iTunes

30
pack

$ от Little Big

ВАЖНО

!!Акция!!

Alien_RageХит недели

RePack

Resident Evil 21

ИГРА 18+

pack

RePack

jed

!!Акция!!

Alien_Rage

RePack

fifa19

RePack

Assassins Creed: Odyssey

RePack

NEED FOR SPEED™ PAYBACK

4 сезон

9 сезон

Бесстыжие 9 сезон

Все сериалы

все сериалы на PB.wtf

RePack

FAR CRY 5
  

Открытие ведьм / A Discovery of Witches / Сезон: 1 / Серии: 1-8 из 8 (Сара Уокер, Элис Тротон) [2018, Фэнтези, мелодрама, BDRip 1080p] MVO [Lostfilm] pb.wtf

Открытие ведьм через торрент pb.wtf

Раздают: 1 [ 0 KB/s ] Качают: 1 [ 0 KB/s ]
Размер: 23.35 GB | Добавлен: 1 мес. 7 д. назад | Торрент скачан:9 раз
Скачать  

11-05-2020 20:43 Открытие ведьм Скачать торрент  

Открытие ведьм | A Discovery of Witches
«***»
Оригинальное название: A Discovery of Witches
Русское название: Открытие ведьм
Год выпуска: 2018
Страна: Великобритания
Жанр: Фэнтези, мелодрама, экранизация книги
Продолжительность: ~ 00:44:00 серия
Перевод: Профессиональный (многоголосый закадровый) | Lostfilm
Субтитры: Eng

Режиссёр: Сара Уокер, Элис Тротон

В ролях: Мэттью Гуд, Тереза Палмер, Оуэн Тил, Малин Буска, Тревор Ив, Аийша Харт, Джулиан Костов, Нила Аалия, Пино Майелло, Алекс Кингстон и другие

Описание: История любви на фоне оксфордской академической жизни. Историк Диана Бишоп специализируется на старинных рукописях и однажды обнаруживает в архивах некий манускрипт, связанный с магией. С этих пор жизнь Дианы превращается в кошмар, зато судьба сводит её с обаятельным генетиком Мэттью Клермонтом. Пикантность ситуации заключается в том, что Диана — потомственная ведьма, а Мэттью — вампир.

rating

Качество: BDRip 1080p
Формат: MKV

Видео: AVC, 1920 x 960 (2.000), 25.000 fps, ~9 679 kbps
Аудио Rus: AC-3, 48 kHz, 2 ch, 384 kbps |Lostfilm|
Аудио Eng: DTS, 48 kHz, 6 ch, 768 kbps |Original|
Общее
Уникальный идентификатор : 313009007290365640397927624001535330838 (0xEB7B578D55A3C171DE0CFB839BB7CA16)
Полное имя : E:\_Сериалы\_Сериалы\Открытие ведьм\A.Discovery.Of.Witches.S01.BDRip.1080p.LostFilm\A.Discovery.Of.Witches.S01E01.BDRip.1080p.LF.RGzsRutracker.mkv
Формат : Matroska
Версия формата : Version 4
Размер файла : 3,40 Гбайт
Продолжительность : 44 м. 54 с.
Общий поток : 10,8 Мбит/сек
Дата кодирования : UTC 2020-05-11 18:54:18
Программа кодирования : mkvmerge v46.0.0 ('No Deeper Escape') 64-bit
Библиотека кодирования : libebml v1.3.10 + libmatroska v1.5.2

Видео
Идентификатор : 1
Формат : AVC
Формат/Информация : Advanced Video Codec
Профиль формата : High@L4.1
Настройки формата : CABAC / 4 Ref Frames
Параметр CABAC формата : Да
Параметр RefFrames формата : 4 кадра
Идентификатор кодека : V_MPEG4/ISO/AVC
Продолжительность : 44 м. 54 с.
Битрейт : 9 679 Кбит/сек
Ширина : 1 920 пикселей
Высота : 960 пикселей
Соотношение сторон : 2,000
Режим частоты кадров : Постоянный
Частота кадров : 25,000 кадров/сек
Цветовое пространство : YUV
Субдискретизация насыщенности : 4:2:0
Битовая глубина : 8 бит
Тип развёртки : Прогрессивная
Бит/(Пиксели*Кадры) : 0.210
Размер потока : 3,04 Гбайт (89%)
Библиотека кодирования : x264 core 157 r2935 545de2f
Настройки программы : cabac=1 / ref=4 / deblock=1:-3:-3 / analyse=0x3:0x113 / me=umh / subme=8 / psy=1 / psy_rd=1.00:0.00 / mixed_ref=1 / me_range=32 / chroma_me=1 / trellis=1 / 8x8dct=1 / cqm=0 / deadzone=21,11 / fast_pskip=1 / chroma_qp_offset=-2 / threads=18 / lookahead_threads=3 / sliced_threads=0 / nr=0 / decimate=1 / interlaced=0 / bluray_compat=0 / constrained_intra=0 / bframes=3 / b_pyramid=2 / b_adapt=2 / b_bias=0 / direct=3 / weightb=1 / open_gop=0 / weightp=2 / keyint=250 / keyint_min=25 / scenecut=40 / intra_refresh=0 / rc_lookahead=50 / rc=2pass / mbtree=1 / bitrate=9679 / ratetol=1.0 / qcomp=0.60 / qpmin=0 / qpmax=69 / qpstep=4 / cplxblur=20.0 / qblur=0.5 / ip_ratio=1.40 / aq=3:0.80
Язык : English
Default : Да
Forced : Нет

Аудио #1
Идентификатор : 2
Формат : AC-3
Формат/Информация : Audio Coding 3
Коммерческое название : Dolby Digital
Идентификатор кодека : A_AC3
Продолжительность : 44 м. 54 с.
Вид битрейта : Постоянный
Битрейт : 384 Кбит/сек
Каналы : 2 канала
Channel layout : L R
Частота : 48,0 КГц
Частота кадров : 31,250 кадров/сек (1536 SPF)
Метод сжатия : С потерями
Размер потока : 123 Мбайт (4%)
Язык : Russian
Service kind : Complete Main
Default : Да
Forced : Нет

Аудио #2
Идентификатор : 3
Формат : DTS
Формат/Информация : Digital Theater Systems
Идентификатор кодека : A_DTS
Продолжительность : 44 м. 54 с.
Вид битрейта : Постоянный
Битрейт : 768 Кбит/сек
Каналы : 6 каналов
Channel layout : C L R Ls Rs LFE
Частота : 48,0 КГц
Частота кадров : 93,750 кадра/сек (512 SPF)
Битовая глубина : 24 бит
Метод сжатия : С потерями
Размер потока : 247 Мбайт (7%)
Язык : English
Default : Нет
Forced : Нет

Текст
Идентификатор : 4
Формат : UTF-8
Идентификатор кодека : S_TEXT/UTF8
Идентификатор кодека/Информация : UTF-8 Plain Text
Продолжительность : 43 м. 54 с.
Битрейт : 51 бит/сек
Count of elements : 514
Размер потока : 16,7 Кбайт (0%)
Язык : English
Default : Нет
Forced : Нет

Меню
00:00:00.000 : en:00:00:00.000
00:11:58.480 : en:00:11:58.480
00:23:26.520 : en:00:23:26.520
00:34:14.320 : en:00:34:14.320
скриншот  скриншот  скриншот  скриншот  скриншот  
Раздача ведётся путём добавления новых серий; при каждом добавлении создаётся новый торрент.
Чтобы начать докачку новой серии, пользователям необходимо сделать следующее:
1. остановить скачивание,
2. удалить старый торрент у себя из клиента (старые серии удалять не надо),
3. скачать новый торрент и запустить его у себя в клиенте вместо старого, при этом указать клиенту путь в старую папку, куда и должно происходить скачивание новых серий.

Ваш клиент при этом должен произвести хеширование (проверку) старой папки (если не производит сам - помогите ему сделать это), и будет докачивать только те серии которых у вас ещё нет. Старые серии при этом не удаляются, а продолжают раздаваться!

Eсли вы уже удалили старые серии, то предотвратить повторную закачку старых серий можно, отжав галочку в соответствующих местах при запуске нового торрента. По возможности, желательно не удалять старые серии как можно дольше, чтобы релизёр не столько продолжал раздавать старые серии, а смог сконцентрироваться на новых.

Совет для тех, кто не хочет ждать перехеширования:
Создайте ещё одну папку рядом с папкой сериала (рядом, а не в ней!!!). Каждую новую серию после удачной загрузки копируйте в новую папку так чтобы ваша основная папка всегда была пуста. Когда ваш новый торрент предложит вам закачать все файлы, выберете только последнюю. Для сидирования же укажите адрес новой папки.

Как закачать отдельный файл из торрента или докачать ранее пропущенные файлы торрента!
pb.wtf



Скачать Открытие ведьм через торрент https://i1.imageban.ru/out/2020/05/11/80eb06b3bcc1e140eab5207dd7deba4f.png Скачать фильм Открытие ведьм через торрент бесплантно в хорошем качестве Описание: История любви на фоне оксфордской академической жизни. Историк Диана Бишоп специализируется на старинных рукописях и однажды ... 10 10 3
Торрент: Зарегистрирован [2020-06-04 16:56] · скачан: 9 раз
Статус: √ проверено
Размер: 23.35 GB
Как cкачать? Как скачать Открытие ведьм через торрент | qTorrent

% Раздел Тема Автор DL S | L
Зарубежные сериалы [ 11.71 GB ] Открытие ведьм / A Discovery of Witches / Сезон: 1 / Серии: 1-8 из 8 [2018 WEBRip 1080p] [MVO] killermax2013 Скачать
1 | 0
Зарубежные сериалы [ 12.65 GB ] Открытие ведьм / A Discovery of Witches / Сезон: 1 / Серии: 1-8 из 8 [2018 HDTVRip 1080p] MVO [Good People] bober100 Скачать
1 | 0
Зарубежные сериалы [ 4.37 GB ] Открытие ведьм / A Discovery of Witches / Сезон: 1 / Серии: 1-8 из 8 [2018 WEB-DLRip] [DVO] + [MVO] killermax2013 Скачать
1 | 0
Зарубежные сериалы [ 12.67 GB ] Открытие ведьм / A Discovery of Witches / Сезон: 1 / Серии: 1-8 из 8 [2018 WEB-DL 1080p] [DVO] + [MVO] killermax2013 Скачать
2 | 0
Зарубежные сериалы [ 6.34 GB ] Открытие ведьм / A Discovery of Witches / Сезон: 1 / Серии: 1-8 из 8 [2018 HDTV 720p] MVO [Jaskier] bober100 Скачать
2 | 0
Зарубежные сериалы [ 12.79 GB ] Открытие ведьм / A Discovery of Witches / Сезон: 1 / Серии: 1-8 из 8 [2018 HDTV 1080p] MVO [NewStudio] bober100 Скачать
1 | 0

28-11-2019 20:33  

Отключить всю рекламу на сайте

    Дорогой пользователь! Огромная просьба, поблагодарите релизера, оцените раздачу и оставьте свои комментарий, если Вы скачали Открытие ведьм через торрент бесплатно! Внесите свою лепту в развитие PiratBit!
    Комментировать посты могут только пользователи прошедшие не сложную регистрацию
    Показать сообщения:    

    Открытие ведьм через торрент
    Скачать бесплатно Открытие ведьм
    Открытие ведьм скачать торрент
    Открытие ведьм смотреть онлайн
    Cкачать фильм Открытие ведьм бесплатно
    Открытие ведьм скачать торрент в хорошем качестве
    Открытие ведьм смотреть онлайн бесплатно в хорошем качестве


    Вы не можете начинать темы
    Вы не можете отвечать на сообщения
    Вы не можете редактировать свои сообщения
    Вы не можете удалять свои сообщения
    Вы не можете голосовать в опросах
    Вы не можете прикреплять файлы к сообщениям
    Вы можете скачивать файлы