Ссылка на приватное зеркало нашего сайта всего за 1$. Внимание количество ограничено!!!

2 сезон

iTunes

1 сезон

1

2 сезон

2 сезон

iTunes

1 сезон

RePack

30

Новинка

ВАЖНО

ИГРА 18+

pack

RePack

MK11
pack

Забери бонус

RePack

jed

!!Акция!!

Alien_Rage

RePack

fifa19

RePack

Assassins Creed: Odyssey

RePack

NEED FOR SPEED™ PAYBACK

4 сезон

9 сезон

Бесстыжие 9 сезон

Все сериалы

все сериалы на PB.wtf

RePack

FAR CRY 5
  

Кукла 2: Брамс / Brahms: The Boy II (Уильям Брент Белл) [2020, Ужасы, триллер, драма, детектив, BD Remux 1080p] DUB [iTunes] pb.wtf

Кукла 2: Брамс через торрент pb.wtf

Размер: 23.46 GB | Добавлен: 6 мес. назад | Торрент скачан:30 раз
Скачать  

12-05-2020 04:55 Кукла 2: Брамс Скачать торрент  

Кукла 2: Брамс | Brahms: The Boy II
Год выпуска: 2020
Страна: США
Студия: Huayi Brothers, Lakeshore Entertainment, STX Entertainment
Жанр: Ужасы, триллер, драма, детектив
Продолжительность: 01:27:00
Перевод: Дублированный | iTunes
Субтитры: Английские

Режиссер: Уильям Брент Белл

rating

В ролях: Кэти Холмс, Овайн Йомэн, Кристофер Конвери, Ралф Айнесон, Анджали Джай, Оливер Райс, Натали Ривалин, Дафна Хоскинс, Джоэли Коллинз, Элли Кинг

Описание: Благополучная семья переезжает в старинный особняк Хилшир. Неподалёку в лесу сын откапывает странную куклу в практически ростом с него самого. Мальчик начинает общаться с куклой как с живым ребенком, не подозревая, чем обернется эта зловещая дружба.

Качество: BD Remux 1080p
Формат: MKV

Видео: MPEG-4 AVC, 1920x1080, 34.9 Mbit/s, 23.976 fps
Аудио #01: 48 kHz, AC3, 5.1, 384 Kbps | iTunes | RUS |
Аудио #02: 48 kHz, DTS-HD MA, 5.1, 3334 Kbps | Оригинал | ENG |
скриншот  скриншот  скриншот  скриншот  скриншот  

General
Unique ID : 239702325470527318370501830340314534717 (0xB454FD1744A7FEB1060B443B3C3E133D)
Complete name : E:Video111Brahms.The.Boy.II.2020.BDREMUX.1080p.seleZen.mkv
Format : Matroska
Format version : Version 4
File size : 23.5 GiB
Duration : 1 h 27 min
Overall bit rate mode : Variable
Overall bit rate : 38.6 Mb/s
Movie name : Brahms The Boy II 2020 from селезень
Encoded date : UTC 2020-05-12 03:40:43
Writing application : mkvmerge v40.0.0 ('Old Town Road + Pony') 64-bit
Writing library : libebml v1.3.9 + libmatroska v1.5.2

Video
ID : 1
Format : AVC
Format/Info : Advanced Video Codec
Format profile : High@L4.1
Format settings : CABAC / 4 Ref Frames
Format settings, CABAC : Yes
Format settings, Reference : 4 frames
Format settings, GOP : M=3, N=12
Codec ID : V_MPEG4/ISO/AVC
Duration : 1 h 27 min
Bit rate mode : Variable
Bit rate : 34.9 Mb/s
Maximum bit rate : 37.0 Mb/s
Width : 1 920 pixels
Height : 1 080 pixels
Display aspect ratio : 16:9
Frame rate mode : Constant
Frame rate : 23.976 (24000/1001) FPS
Color space : YUV
Chroma subsampling : 4:2:0
Bit depth : 8 bits
Scan type : Progressive
Bits/(Pixel*Frame) : 0.702
Stream size : 21.2 GiB (90%)
Language : English
Default : Yes
Forced : No

Audio #1
ID : 2
Format : AC-3
Format/Info : Audio Coding 3
Commercial name : Dolby Digital
Codec ID : A_AC3
Duration : 1 h 27 min
Bit rate mode : Constant
Bit rate : 384 kb/s
Channel(s) : 6 channels
Channel layout : L R C LFE Ls Rs
Sampling rate : 48.0 kHz
Frame rate : 31.250 FPS (1536 SPF)
Compression mode : Lossy
Stream size : 239 MiB (1%)
Title : iTunes
Language : Russian
Service kind : Complete Main
Default : Yes
Forced : Yes

Audio #2
ID : 3
Format : DTS XLL
Format/Info : Digital Theater Systems
Commercial name : DTS-HD Master Audio
Codec ID : A_DTS
Duration : 1 h 27 min
Bit rate mode : Variable
Bit rate : 3 334 kb/s
Channel(s) : 6 channels
Channel layout : C L R Ls Rs LFE
Sampling rate : 48.0 kHz
Frame rate : 93.750 FPS (512 SPF)
Bit depth : 24 bits
Compression mode : Lossless
Stream size : 2.03 GiB (9%)
Title : Original
Language : English
Default : No
Forced : No

Text #1
ID : 4
Format : UTF-8
Codec ID : S_TEXT/UTF8
Codec ID/Info : UTF-8 Plain Text
Duration : 1 h 18 min
Bit rate : 41 b/s
Count of elements : 865
Stream size : 24.0 KiB (0%)
Title : Full
Language : English
Default : No
Forced : No

Text #2
ID : 5
Format : UTF-8
Codec ID : S_TEXT/UTF8
Codec ID/Info : UTF-8 Plain Text
Duration : 1 h 18 min
Bit rate : 46 b/s
Count of elements : 972
Stream size : 26.7 KiB (0%)
Title : SDH
Language : English
Default : No
Forced : No

Menu
00:00:00.000 : :Chapter 1
00:04:12.460 : :Chapter 2
00:10:29.128 : :Chapter 3
00:15:08.991 : :Chapter 4
00:19:32.838 : :Chapter 5
00:25:38.829 : :Chapter 6
00:30:39.045 : :Chapter 7
00:34:11.174 : :Chapter 8
00:39:19.106 : :Chapter 9
00:43:00.286 : :Chapter 10
00:46:27.659 : :Chapter 11
00:48:32.910 : :Chapter 12
00:54:01.404 : :Chapter 13
00:57:54.846 : :Chapter 14
01:03:06.491 : :Chapter 15
01:08:23.099 : :Chapter 16
01:11:29.034 : :Chapter 17
01:15:44.665 : :Chapter 18
01:18:13.897 : :Chapter 19
01:20:20.607 : :Chapter 20

pb.wtf



Скачать Кукла 2: Брамс через торрент https://i111.fastpic.ru/big/2020/0508/ee/e95982cb545dd67b91986b869a63baee.jpg Скачать фильм Кукла 2: Брамс через торрент бесплантно в хорошем качестве Описание: Благополучная семья переезжает в старинный особняк Хилшир. Неподалёку в лесу сын откапывает странную куклу в практически ростом с ... 9.8 10 6
Торрент: Зарегистрирован [2020-05-12 04:55] · скачан: 30 раз
Статус: √ проверено
Размер: 23.46 GB
Как cкачать? Как скачать Кукла 2: Брамс через торрент | qTorrent

% Раздел Тема Автор DL S | L
Ultra HD (UHD: 2K, 4K, 8K) — видео сверхвысокой чёткости [ 37.07 GB ] Кукла 2: Брамс / Brahms: The Boy II [2020 UHD BDRemux 2160p] bober100 Скачать
3 | 0
Фильмы (WEB-DL 720p, 1080p) [ 3.53 GB ] Кукла 2: Брамс / Brahms: The Boy II [2020 WEB-DL 1080p] bober100 Скачать
2 | 0
Фильмы 2019-2020 [DVDrip, WEB-DLRip, HDrip] (DUB, MVO) [ 1.42 GB ] Кукла 2: Брамс / Brahms: The Boy II [2020 BDRip] - Twi7ter Скачать
9 | 1
Фильмы [HD 720p, 1080p] (Хороший звук DUB, MVO) [ 5.9 GB ] Кукла 2: Брамс / Brahms: The Boy II [2020 BDRip 1080p] bober100 Скачать
1 | 0
Фильмы 2019-2020 [DVDrip, WEB-DLRip, HDrip] (DUB, MVO) [ 809 MB ] Кукла 2: Брамс / Brahms: The Boy II [2020 HDRip] bober100 Скачать
1 | 0
Фильмы [HD 720p, 1080p] (Хороший звук DUB, MVO) [ 2.72 GB ] Кукла 2: Брамс / Brahms: The Boy II [2020 BDRip 720p] bober100 Скачать
1 | 0
Фильмы 2019-2020 [DVDrip, WEB-DLRip, HDrip] (DUB, MVO) [ 1.42 GB ] Кукла 2: Брамс / Brahms: The Boy II [2020 BDRip] bober100 Скачать
1 | 0

28-11-2019 20:33  

Отключить всю рекламу на сайте

    Дорогой пользователь! Огромная просьба, поблагодарите релизера, оцените раздачу и оставьте свои комментарий, если Вы скачали Кукла 2: Брамс через торрент бесплатно! Внесите свою лепту в развитие PiratBit!
    Комментировать посты могут только пользователи прошедшие не сложную регистрацию
    Показать сообщения:    

    Кукла 2: Брамс через торрент
    Скачать бесплатно Кукла 2: Брамс
    Кукла 2: Брамс скачать торрент
    Кукла 2: Брамс смотреть онлайн
    Cкачать фильм Кукла 2: Брамс бесплатно
    Кукла 2: Брамс скачать торрент в хорошем качестве
    Кукла 2: Брамс смотреть онлайн бесплатно в хорошем качестве


    Вы не можете начинать темы
    Вы не можете отвечать на сообщения
    Вы не можете редактировать свои сообщения
    Вы не можете удалять свои сообщения
    Вы не можете голосовать в опросах
    Вы не можете прикреплять файлы к сообщениям
    Вы можете скачивать файлы