Ссылка на приватное зеркало нашего сайта всего за 1$. Внимание количество ограничено!!!

2 сезон

iTunes

1 сезон

1

iTunes

iTunes

iTunes

1 сезон

RePack

30

ИГРА 18+

pack

ВАЖНО

!!Акция!!

Alien_RageХит недели

RePack

MK11
pack

Забери бонус

RePack

jed

!!Акция!!

Alien_Rage

RePack

fifa19

RePack

Assassins Creed: Odyssey

RePack

NEED FOR SPEED™ PAYBACK

4 сезон

9 сезон

Бесстыжие 9 сезон

Все сериалы

все сериалы на PB.wtf

RePack

FAR CRY 5
  

Викинг Вик / Vic the Viking and the Magic Sword (Эрик Казес) [2019, Мультфильм, боевик, комедия, приключения, семейный, WEB-DLRip-AVC] DUB [iTunes] - ExKinoRay pb.wtf

Викинг Вик через торрент pb.wtf

Размер: 1.69 GB | Добавлен: 5 мес. 10 д. назад | Торрент скачан:95 раз
Скачать  

12-05-2020 05:34 Викинг Вик Скачать торрент  

Викинг Вик / Vic the Viking and the Magic Sword
Год выпуска: 2019
Страна: Германия, Франция, Бельгия / Studio 100 Animation, Studio 100 Media, Belvision
Жанр: Мультфильм, боевик, комедия, приключения, семейный
Продолжительность: 01:21:26
Перевод: Дублированный [iTunes]
Субтитры: Русские

Режиссер: Эрик Казес

rating

В ролях: Деклан Миле-Хауэлл, Давид Шааль, Оуэн Фрост, Виолет Такер Стил, Джон Ченсер, Тим Бентинк, Дэвид Гудж, Роланд Стоун, Эва Сэвэдж, Дитмар Бер

Описание: Юноша по имени Вик, несмотря на свой небольшой рост, всегда мечтал отправиться в дальнее плавание, прямо как его отец - вождь могущественного клана викингов. И вот судьба дает Вику шанс проявить себя, когда его мать попадает в золотой плен бога Локи. Чтобы снять зловещие чары неопытному викингу предстоит отправиться в захватывающее и опасное путешествие к вратам города богов - самому Асгарду.

Качество: WEB-DLRip-AVC
Формат: MKV
Видео кодек: H.264
Аудио кодек: AC3
Видео: MPEG-4 AVC, 2576 Кбит/с, 1024x424
Аудио#1: Русский (AC3, 6 ch, 384 Кбит/с) Dub (iTunes)

Релиз от:
Общее
Уникальный идентификатор : 191638505624943946730006991791163665265 (0x902C3BD05C23F93785194F390A0F6B71)
Полное имя : D:\Раздача\Viking.Vic.2019.WEB-DLRip-AVC.ExKinoRay.mkv
Формат : Matroska
Версия формата : Version 4 / Version 2
Размер файла : 1,69 Гбайт
Продолжительность : 1 ч. 21 м.
Общий поток : 2962 Кбит/сек
Название фильма : Vic the Viking and the Magic Sword.2019.WEB-DLRip-AVC.grab777 & ExKinoRay
Дата кодирования : UTC 2020-05-12 03:32:52
Программа кодирования : mkvmerge v7.3.0 ('Nouages') 64bit built on Oct 22 2014 18:53:34
Библиотека кодирования : libebml v1.3.0 + libmatroska v1.4.1

Видео
Идентификатор : 1
Формат : AVC
Формат/Информация : Advanced Video Codec
Профиль формата : High@L4.1
Настройки формата : CABAC / 12 Ref Frames
Параметр CABAC формата : Да
Параметр RefFrames формата : 12 кадров
Идентификатор кодека : V_MPEG4/ISO/AVC
Продолжительность : 1 ч. 21 м.
Битрейт : 2576 Кбит/сек
Ширина : 1024 пикселя
Высота : 424 пикселя
Соотношение сторон : 2,40:1
Режим частоты кадров : Постоянный
Частота кадров : 24,000 кадра/сек
Цветовое пространство : YUV
Субдискретизация насыщенности : 4:2:0
Битовая глубина : 8 бит
Тип развёртки : Прогрессивная
Бит/(Пиксели*Кадры) : 0.247
Размер потока : 1,47 Гбайт (87%)
Заголовок : Rip by grab777
Библиотека кодирования : x264 core 148 r2665M a01e339
Настройки программы : cabac=1 / ref=12 / deblock=1:-2:-2 / analyse=0x3:0x113 / me=umh / subme=10 / psy=1 / psy_rd=1.00:0.15 / mixed_ref=1 / me_range=32 / chroma_me=1 / trellis=2 / 8x8dct=1 / cqm=0 / deadzone=21,11 / fast_pskip=1 / chroma_qp_offset=-3 / threads=5 / lookahead_threads=1 / sliced_threads=0 / nr=0 / decimate=1 / interlaced=0 / bluray_compat=0 / constrained_intra=0 / bframes=10 / b_pyramid=2 / b_adapt=2 / b_bias=0 / direct=3 / weightb=1 / open_gop=0 / weightp=2 / keyint=240 / keyint_min=24 / scenecut=40 / intra_refresh=0 / rc_lookahead=40 / rc=crf / mbtree=0 / crf=16.0 / qcomp=0.60 / qpmin=0 / qpmax=69 / qpstep=4 / vbv_maxrate=30000 / vbv_bufsize=40000 / crf_max=0.0 / nal_hrd=none / filler=0 / ip_ratio=1.40 / pb_ratio=1.30 / aq=1:1.00
Язык : English
Default : Да
Forced : Нет
Цветовой диапазон : Limited
Основные цвета : BT.709
Характеристики трансфера : BT.709
Коэффициенты матрицы : BT.709

Аудио
Идентификатор : 2
Формат : AC-3
Формат/Информация : Audio Coding 3
Параметр Endianness формата : Big
Идентификатор кодека : A_AC3
Продолжительность : 1 ч. 21 м.
Вид битрейта : Постоянный
Битрейт : 384 Кбит/сек
Каналы : 6 каналов
Расположение каналов : Front: L C R, Side: L R, LFE
Частота : 48,0 КГц
Частота кадров : 31,250 кадров/сек (1536 SPF)
Битовая глубина : 16 бит
Метод сжатия : С потерями
Размер потока : 224 Мбайт (13%)
Заголовок : Dub (iTunes)
Язык : Russian
ServiceKind/String : Complete Main
Default : Да
Forced : Да

Текст
Идентификатор : 3
Формат : UTF-8
Идентификатор кодека : S_TEXT/UTF8
Идентификатор кодека/Информация : UTF-8 Plain Text
Продолжительность : 1 ч. 12 м.
Битрейт : 82 бит/сек
ElementCount : 728
Размер потока : 44,3 Кбайт (0%)
Заголовок : Full
Язык : Russian
Default : Нет
Forced : Нет

Меню
00:00:00.000 : :Глава 1
00:04:01.416 : :Глава 2
00:11:21.915 : :Глава 3
00:20:23.915 : :Глава 4
00:25:57.123 : :Глава 5
00:33:51.956 : :Глава 6
00:44:01.581 : :Глава 7
00:54:10.497 : :Глава 8
01:07:22.538 : :Глава 9

pb.wtf



Скачать Викинг Вик через торрент http://pic1.kartinco.top/images/12/57zi8.jpg Скачать фильм Викинг Вик через торрент бесплантно в хорошем качестве Описание: Юноша по имени Вик, несмотря на свой небольшой рост, всегда мечтал отправиться в дальнее плавание, прямо как его отец - вождь ... 10 10 2
Info! Золотая раздача, скачанное не засчитывается.
Торрент: Зарегистрирован [2020-05-12 05:34] · скачан: 95 раз
Статус: √ проверено
Размер: 1.69 GB
Как cкачать? Как скачать Викинг Вик через торрент | qTorrent

28-11-2019 20:33  

Отключить всю рекламу на сайте

    Дорогой пользователь! Огромная просьба, поблагодарите релизера, оцените раздачу и оставьте свои комментарий, если Вы скачали Викинг Вик через торрент бесплатно! Внесите свою лепту в развитие PiratBit!
    Комментировать посты могут только пользователи прошедшие не сложную регистрацию
    Показать сообщения:    

    Викинг Вик через торрент
    Скачать бесплатно Викинг Вик
    Викинг Вик скачать торрент
    Викинг Вик смотреть онлайн
    Cкачать фильм Викинг Вик бесплатно
    Викинг Вик скачать торрент в хорошем качестве
    Викинг Вик смотреть онлайн бесплатно в хорошем качестве


    Вы не можете начинать темы
    Вы не можете отвечать на сообщения
    Вы не можете редактировать свои сообщения
    Вы не можете удалять свои сообщения
    Вы не можете голосовать в опросах
    Вы не можете прикреплять файлы к сообщениям
    Вы можете скачивать файлы