Ссылка на приватное зеркало всего за 1$. Внимание количество ограничено!!!

iTunes

iTunes

iTunes

1

iTunes

iTunes

iTunes

iTunes

iTunes

30
pack

$ от Little Big

ВАЖНО

!!Акция!!

Alien_RageХит недели

RePack

Resident Evil 21

ИГРА 18+

pack

RePack

jed

!!Акция!!

Alien_Rage

RePack

fifa19

RePack

Assassins Creed: Odyssey

RePack

NEED FOR SPEED™ PAYBACK

4 сезон

9 сезон

Бесстыжие 9 сезон

Все сериалы

все сериалы на PB.wtf

RePack

FAR CRY 5
  

Лев Яшин. Вратарь моей мечты (Василий Чигинский) [2019, Биография, спорт, драма, BDRip 1080p] [Лицензия BD RUS] pb.wtf

Лев Яшин. Вратарь моей мечты через торрент pb.wtf

Раздают: 3 [ 143 KB/s ]
Размер: 11.2 GB | Добавлен: 1 мес. 30 д. назад | Торрент скачан:148 раз
Скачать  

12-05-2020 17:41 Лев Яшин. Вратарь моей мечты Скачать торрент  

Лев Яшин. Вратарь моей мечты
Год выпуска: 2019
Страна: Россия
Студия: Kremlin Films
Жанр: Биография, спорт, драма
Продолжительность: 01:55:55
Перевод: Не требуется | Лицензия BD RUS
Субтитры: отсутствуют

Режиссер: Василий Чигинский

rating

В ролях: Александр Фокин, Юлия Хлынина, Алексей Гуськов, Алексей Кравченко, Евгений Дятлов, Виталий Хаев, Михаил Елисеев, Ян Цапник, Александр Самойленко, Владимир Андреев и др.

Описание: Чёрный паук, Чёрная пантера и даже Чёрный осьминог — такими прозвищами награждали Льва Яшина за гибкость, молниеносное перемещение и гениальное видение поля. Он, неизменно в черном свитере с буквой «Д», был полноправным хозяином в своей штрафной. После поражения на Чемпионате мира в Чили ему придется уйти, чтобы позже с триумфом вернуться и снова стать лучшим не только в стране, но и во всем мире — единственным вратарём за всю историю футбола, получившим Золотой мяч. Лучшим, по мнению FIFA, вратарем ХХ века.

Качество: BDRip 1080p
Формат: MKV

Видео: MPEG-4 AVC, 1920x804, 11683 kbps, 24, 000 fps
Аудио#1: русский, AC3, 5.1 ch, 48 kHz, 640 kbps
Аудио#2: русский, DTS, 5.1 ch, 48 kHz, 1509 kbps
скриншот  скриншот  скриншот  скриншот  скриншот  

Общее
Уникальный идентификатор: 242236016045398103800025894061279088837 (0xB63CF5AE50B571AA8CF027ABB53510C5)
Полное имя: G:Torrent2LevYashinVratarMoejMechtyBDRip1080p.mkv
Формат: Matroska
Версия формата: Version 4 / Version 2
Размер файла: 11, 2 Гбайт
Продолжительность: 1 ч. 55 м.
Общий поток: 13, 8 Мбит/сек
Дата кодирования: UTC 2020-05-11 11:25:56
Программа кодирования: mkvmerge v9.5.0 ('Quiet Fire') 64bit
Библиотека кодирования: libebml v1.3.4 + libmatroska v1.4.5

Видео
Идентификатор: 1
Формат: AVC
Формат/Информация: Advanced Video Codec
Профиль формата: High@L4.1
Настройки формата: CABAC / 5 Ref Frames
Параметр CABAC формата: Да
Параметр RefFrames формата: 5 кадров
Идентификатор кодека: V_MPEG4/ISO/AVC
Продолжительность: 1 ч. 55 м.
Битрейт: 11, 7 Мбит/сек
Ширина: 1920 пикселей
Высота: 804 пикселя
Соотношение сторон: 2, 40:1
Режим частоты кадров: Постоянный
Частота кадров: 24, 000 кадра/сек
Цветовое пространство: YUV
Субдискретизация насыщенности: 4:2:0
Битовая глубина: 8 бит
Тип развёртки: Прогрессивная
Бит/(Пиксели*Кадры): 0.315
Размер потока: 9, 46 Гбайт (84%)
Заголовок: Sisendrovich(R)
Библиотека кодирования: x264 core 159 r2991 1771b55
Настройки программы: cabac=1 / ref=5 / deblock=1:-1:-1 / analyse=0x3:0x133 / me=tesa / subme=11 / psy=1 / psy_rd=1.00:0.00 / mixed_ref=1 / me_range=32 / chroma_me=1 / trellis=2 / 8x8dct=1 / cqm=0 / deadzone=21, 11 / fast_pskip=0 / chroma_qp_offset=-2 / threads=24 / lookahead_threads=4 / sliced_threads=0 / nr=0 / decimate=0 / interlaced=0 / bluray_compat=0 / constrained_intra=0 / bframes=8 / b_pyramid=2 / b_adapt=2 / b_bias=0 / direct=3 / weightb=1 / open_gop=0 / weightp=2 / keyint=240 / keyint_min=23 / scenecut=40 / intra_refresh=0 / rc_lookahead=60 / rc=2pass / mbtree=0 / bitrate=11683 / ratetol=1.0 / qcomp=0.70 / qpmin=0 / qpmax=69 / qpstep=4 / cplxblur=20.0 / qblur=0.5 / vbv_maxrate=50000 / vbv_bufsize=62500 / nal_hrd=none / filler=0 / ip_ratio=1.40 / pb_ratio=1.30 / aq=3:0.80
Язык: Russian
Default: Да
Forced: Нет

Аудио #1
Идентификатор: 2
Формат: AC-3
Формат/Информация: Audio Coding 3
Параметр Endianness формата: Big
Идентификатор кодека: A_AC3
Продолжительность: 1 ч. 55 м.
Вид битрейта: Постоянный
Битрейт: 640 Кбит/сек
Каналы: 6 каналов
Расположение каналов: Front: L C R, Side: L R, LFE
Частота: 48, 0 КГц
Частота кадров: 31, 250 кадров/сек (1536 SPF)
Битовая глубина: 16 бит
Метод сжатия: С потерями
Размер потока: 531 Мбайт (5%)
Заголовок: rusAC3
Язык: Russian
Default: Да
Forced: Нет

Аудио #2
Идентификатор: 3
Формат: DTS
Формат/Информация: Digital Theater Systems
Режим: 16
Параметр Endianness формата: Big
Идентификатор кодека: A_DTS
Продолжительность: 1 ч. 55 м.
Вид битрейта: Постоянный
Битрейт: 1509 Кбит/сек
Каналы: 6 каналов
Расположение каналов: Front: L C R, Side: L R, LFE
Частота: 48, 0 КГц
Частота кадров: 93, 750 кадра/сек (512 SPF)
Битовая глубина: 24 бит
Метод сжатия: С потерями
Размер потока: 1, 22 Гбайт (11%)
Заголовок: rusDTS
Язык: Russian
Default: Нет
Forced: Нет

Меню
00: 00:00.000: en:Chapter 1
00: 00:18.708: en:Chapter 2
00: 10:07.083: en:Chapter 3
00: 20:28.791: en:Chapter 4
00: 31:17.291: en:Chapter 5
00: 43:34.500: en:Chapter 6
00: 55:37.166: en:Chapter 7
01: 07:54.625: en:Chapter 8
01: 18:39.541: en:Chapter 9
01: 29:51.291: en:Chapter 10
01: 43:21.083: en:Chapter 11

pb.wtf



Скачать Лев Яшин. Вратарь моей мечты через торрент http://lostpix.com/thumbs/2020-05/12/0qo1yb1obwml94rgf9d6yul2c.png Скачать фильм Лев Яшин. Вратарь моей мечты через торрент бесплантно в хорошем качестве Описание: Чёрный паук, Чёрная пантера и даже Чёрный осьминог — такими прозвищами награждали Льва Яшина за гибкость, молниеносное ... 9.9 10 7
Торрент: Зарегистрирован [2020-05-12 17:41] · скачан: 148 раз
Статус: √ проверено
Размер: 11.2 GB
Как cкачать? Как скачать Лев Яшин. Вратарь моей мечты через торрент | qTorrent

% Раздел Тема Автор DL S | L
Наши новые фильмы 2018-2019 [ 2.18 GB ] Лев Яшин. Вратарь моей мечты [2019 Биография BDRip] [Русский] [] Twi7ter Скачать
38 | 0
Наши новые фильмы 2018-2019 [ 1.46 GB ] Лев Яшин. Вратарь моей мечты [2019 Биография BDRip] [Русский] [] Twi7ter Скачать
103 | 5
Наши фильмы (Blu-ray, BD-Remux, HDDVD) [ 29.98 GB ] Лев Яшин. Вратарь моей мечты [2019 Биография Blu-ray 1080p] [RUS Transfer / ] bober100 Скачать
1 | 0
Наши фильмы (Blu-ray, BD-Remux, HDDVD) [ 25.06 GB ] Лев Яшин. Вратарь моей мечты [2019 Биография BD Remux 1080p] [RUS Transfer / BD RUS] bober100 Скачать
2 | 0
Наши новые фильмы 2018-2019 [ 2.18 GB ] Лев Яшин. Вратарь моей мечты [2019 Биография HDRip-AVC] [ Blu-ray RUS] bober100 Скачать
2 | 0
Наши фильмы (HD, WEB-DL 720p, 1080p) [ 5.95 GB ] Лев Яшин. Вратарь моей мечты [2019 Биография BDRip 720p] [ BD RUS] bober100 Скачать
4 | 0
Наши фильмы (HD, WEB-DL 720p, 1080p) [ 3.98 GB ] Лев Яшин. Вратарь моей мечты [2019 Биография WEB-DL 1080p] bober100 Скачать
5 | 0

28-11-2019 20:33  

Отключить всю рекламу на сайте

30-05-2020 14:33 Лев Яшин. Вратарь моей мечты Скачать торрент  

нормас кено душевноеpb.wtf



    Дорогой пользователь! Огромная просьба, поблагодарите релизера, оцените раздачу и оставьте свои комментарий, если Вы скачали Лев Яшин. Вратарь моей мечты через торрент бесплатно! Внесите свою лепту в развитие PiratBit!
    Комментировать посты могут только пользователи прошедшие не сложную регистрацию
    Показать сообщения:    

    Лев Яшин. Вратарь моей мечты через торрент
    Скачать бесплатно Лев Яшин. Вратарь моей мечты
    Лев Яшин. Вратарь моей мечты скачать торрент
    Лев Яшин. Вратарь моей мечты смотреть онлайн
    Cкачать фильм Лев Яшин. Вратарь моей мечты бесплатно
    Лев Яшин. Вратарь моей мечты скачать торрент в хорошем качестве
    Лев Яшин. Вратарь моей мечты смотреть онлайн бесплатно в хорошем качестве


    Вы не можете начинать темы
    Вы не можете отвечать на сообщения
    Вы не можете редактировать свои сообщения
    Вы не можете удалять свои сообщения
    Вы не можете голосовать в опросах
    Вы не можете прикреплять файлы к сообщениям
    Вы можете скачивать файлы