Ссылка на приватное зеркало всего за 1$. Внимание количество ограничено!!!

iTunes

iTunes

iTunes

1

iTunes

iTunes

iTunes

iTunes

iTunes

30
pack

$ от Little Big

ВАЖНО

!!Акция!!

Alien_RageХит недели

RePack

Resident Evil 21

ИГРА 18+

pack

RePack

jed

!!Акция!!

Alien_Rage

RePack

fifa19

RePack

Assassins Creed: Odyssey

RePack

NEED FOR SPEED™ PAYBACK

4 сезон

9 сезон

Бесстыжие 9 сезон

Все сериалы

все сериалы на PB.wtf

RePack

FAR CRY 5
  

Реальные пацаны / Сезон: 12 / Серии: 1-20 из 20 (Жанна Кадникова) [2020, Комедия, SATRip] pb.wtf

Реальные пацаны через торрент pb.wtf

Раздают: 2 [ 3 KB/s ] Качают: 1 [ 0 KB/s ]
Размер: 6.84 GB | Добавлен: 1 мес. назад | Торрент скачан:57 раз
Скачать  

12-05-2020 18:05 Реальные пацаны Скачать торрент  

Реальные пацаны
Год выпуска: 2020
Страна: Россия
Жанр: Комедия
Продолжительность: ~ 00:23:00
Субтитры: отсутствуют

Режиссер: Жанна Кадникова

rating

В ролях: Николай Наумов, Зоя Бербер, Антон Богданов, Владимир Селиванов, Станислав Тляшев, Мария Скорницкая, Валентина Мазунина, Марина Федункив, Армен Бежанян, Игорь Ознобихин, Алексей Базанов, Анастасия Плоскова, Сергей Ершов, Татьяна Ронзина, Любовь Рудометова, Юлия Гришнина, Михаил Чуднов, Юрий Богомолов, Василий Бичев, Анна Шепелева

Описание: Успешные и знаменитые «Реальные пацаны» из гастрольного тура вернутся в Пермь пожинать плоды своей популярности. Больше никогда не работать на дядю! Больше никогда не зависеть от Иваныча! Вечный кайф и полная идиллия. Только вот семейные заботы не дают выдохнуть. Но пацаны смотря вдаль и верят, что даже самая суровая «бытовуха» в итоге разрулится. Так-то всегда так бывает! В новом сезоне героев сериала ждут еще более взрослые и серьезные заботы. ЭКО, ипотека, свой бизнес – настало время новых возможностей! На протяжении 9-ти лет героям сериала удавалось уникальным образом выпутываться из самых разных передряг, сохраняя при этом важные жизненные ценности. Доброта, юмор, любовь и дружба – то, на чем держится мир «Реальных пацанов» не только в сериале ТНТ, но и в реальной жизни. А значит, проблемы обязательно решатся, даже если немного накосячить.

Качество: SATRip
Формат: AVI

Видео: XviD, ~ 1650 Кбит/с, 720x400
Аудио: MP3, 2 ch, 192 Кбит/с
скриншот  скриншот  скриншот  скриншот  

Общее
Полное имя : C:\Realnye.pacany.s12.SATRip.25Kuzmich\Realnye.pacany.s12.s01.XviD.SATRip.25Kuzmich.avi
Формат : AVI
Формат/Информация : Audio Video Interleave
Размер файла : 349 Мбайт
Продолжительность : 25 м. 10 с.
Общий поток : 1941 Кбит/сек
Программа кодирования : VirtualDubMod 1.5.10.3 | www.virtualdub-fr.org || (build 2550/release)
Библиотека кодирования : VirtualDubMod build 2550/release

Видео
Идентификатор : 0
Формат : MPEG-4 Visual
Профиль формата : Advanced Simple@L5
Настройки формата : BVOP1
Параметр BVOP формата : 1
Параметр QPel формата : Нет
Параметр GMC формата : Без точки перехода
Параметр матрицы формата : Default (MPEG)
Идентификатор кодека : XVID
Идентификатор кодека/Подсказка : XviD
Продолжительность : 25 м. 10 с.
Битрейт : 1663 Кбит/сек
Ширина : 720 пикселей
Высота : 400 пикселей
Соотношение сторон : 16:9
Частота кадров : 25,000 кадров/сек
Цветовое пространство : YUV
Субдискретизация насыщенности : 4:2:0
Битовая глубина : 8 бит
Тип развёртки : Прогрессивная
Метод сжатия : С потерями
Бит/(Пиксели*Кадры) : 0.231
Размер потока : 299 Мбайт (86%)
Библиотека кодирования : XviD 73

Аудио
Идентификатор : 1
Формат : MPEG Audio
Версия формата : Version 1
Профиль формата : Layer 3
Настройки формата : Joint stereo / MS Stereo
Идентификатор кодека : 55
Идентификатор кодека/Подсказка : MP3
Продолжительность : 25 м. 10 с.
Вид битрейта : Постоянный
Битрейт : 192 Кбит/сек
Каналы : 2 канала
Частота : 48,0 КГц
Частота кадров : 41,667 кадра/сек (1152 SPF)
Метод сжатия : С потерями
Размер потока : 34,6 Мбайт (10%)
Выравнивание : Соединение по промежуткам
Библиотека кодирования : LAME3.99r
Настройки программы : -m j -V 4 -q 2 -lowpass 18.6 -b 192

Когда раздача ведётся путём добавления новых серий, при каждом добавлении создётся новый торрент. Чтобы начать докачку новой серии, пользователям необходимо сделать следующее:
(1) остановить скачивание,
(2) удалить старый торрент у себя из клиента (старые серии удалять не надо),
(3) скачать новый торрент и запустить его у себя в клиенте вместо старого, при этом указать клиенту путь в старую папку, куда и должно происходить скачивание новых серий.
Ваш клиент при этом должен произвести хеширование (проверку) старой папки (если не производит сам - помогите ему сделать это), и будет докачивать только те серии, которых у вас ещё нет. Старые серии при этом не удаляются, а продолжают раздаваться!
Eсли вы уже удалили старые серии, то предотвратить повторную закачку старых серий можно, отжав галочку в соответсвующих местах при запуске нового торрента. По возможности, желательно не удалять старые серии как можно дольше, чтобы релизер не столько продолжал раздавать старые серии, а смог сконцентрироваться на новых.
pb.wtf



Скачать Реальные пацаны через торрент https://i111.fastpic.ru/big/2020/0512/7f/96002ba41232a81044568e1ab6aa007f.jpg Скачать фильм Реальные пацаны через торрент бесплантно в хорошем качестве Описание: Успешные и знаменитые «Реальные пацаны» из гастрольного тура вернутся в Пермь пожинать плоды своей популярности. Больше никогда ... 8.7 10 27
Торрент: Зарегистрирован [2020-06-11 13:18] · скачан: 57 раз
Статус: √ проверено
Размер: 6.84 GB
Как cкачать? Как скачать Реальные пацаны через торрент | qTorrent

% Раздел Тема Автор DL S | L
TNT serials [ 21.96 GB ] Реальные пацаны / Сезон: 12 / Серии: 1-20 из 20 [2020 HDTV 1080i] bober100 Скачать
2 | 2
TNT serials [ 12.97 GB ] Реальные пацаны / Сезон: 12 / Серии: 1-17 из 20 [2020 WEBRip 1080p] bober100 Скачать
1 | 0
TNT serials [ 6.14 GB ] Реальные пацаны / Сезон: 12 / Серии: 1-20 из 20 + Фильм о фильме [2020 WEBRip-AVC] bober100 Скачать
4 | 1
TNT serials [ 10.73 GB ] Реальные пацаны / Сезон: 12 / Серии: 1-20 из 20 + Фильм о фильме [2020 WEBRip 720p] bober100 Скачать
1 | 2
Наши сериалы [ 9.91 GB ] Реальные пацаны / Сезон: 4 Серии: 1-20 из 20 [2012 Комедийный сериал DVB] Оригинал wekotila Скачать
1 | 0
Наши сериалы [ 5.61 GB ] Реальные Пацаны / Сезон: 4 / Серии: 1-20 из 20 [2012 СитКом SATRip] -=Cherry=- Скачать
1 | 0


Последний раз редактировалось: bober100 (2020-05-25 14:44), всего редактировалось 3 раз(а)

28-11-2019 20:33  

Отключить всю рекламу на сайте

    Дорогой пользователь! Огромная просьба, поблагодарите релизера, оцените раздачу и оставьте свои комментарий, если Вы скачали Реальные пацаны через торрент бесплатно! Внесите свою лепту в развитие PiratBit!
    Комментировать посты могут только пользователи прошедшие не сложную регистрацию
    Показать сообщения:    

    Реальные пацаны через торрент
    Скачать бесплатно Реальные пацаны
    Реальные пацаны скачать торрент
    Реальные пацаны смотреть онлайн
    Cкачать фильм Реальные пацаны бесплатно
    Реальные пацаны скачать торрент в хорошем качестве
    Реальные пацаны смотреть онлайн бесплатно в хорошем качестве


    Вы не можете начинать темы
    Вы не можете отвечать на сообщения
    Вы не можете редактировать свои сообщения
    Вы не можете удалять свои сообщения
    Вы не можете голосовать в опросах
    Вы не можете прикреплять файлы к сообщениям
    Вы можете скачивать файлы