Ссылка на приватное зеркало всего за 1$. Внимание количество ограничено!!!

iTunes

iTunes

iTunes

1

iTunes

iTunes

iTunes

iTunes

iTunes

30
pack

$ от Little Big

ВАЖНО

!!Акция!!

Alien_RageХит недели

RePack

Resident Evil 21

ИГРА 18+

pack

RePack

jed

!!Акция!!

Alien_Rage

RePack

fifa19

RePack

Assassins Creed: Odyssey

RePack

NEED FOR SPEED™ PAYBACK

4 сезон

9 сезон

Бесстыжие 9 сезон

Все сериалы

все сериалы на PB.wtf

RePack

FAR CRY 5
  

Морские паразиты / Sea Fever (Ниса Хардиман) [2019, Ужасы, фантастика, BDRip 720p] DVO [LakeFilms] - ExKinoRay pb.wtf

Морские паразиты через торрент pb.wtf

Раздают: 10 [ 140 KB/s ]
Размер: 3.5 GB | Добавлен: 20 д. назад | Торрент скачан:253 раза
Скачать  

12-05-2020 20:32 Морские паразиты Скачать торрент  

Морские паразиты / Sea Fever
Год выпуска: 2019
Страна: Ирландия, США, Великобритания, Швеция, Бельгия / Bright Moving Pictures, Creativity Capital, Fantastic Films, Flexibon Films, Makar Productions
Жанр: Ужасы, фантастика
Продолжительность: 01:34:14
Перевод: Любительский (двухголосый) [LakeFilms]
Субтитры: Английские

Режиссер: Ниса Хардиман

rating

В ролях: Конни Нильсен, Гермиона Корфилд, Дугрей Скотт, Олуэн Фуэре, Джек Хикки, Ардалан Эсмаили, Эли Буаказе

Описание: Изучающая биологию и природные аномалии студентка Шивон отправляется проходить практику на рыболовецкое судно. Поездка обещает принести новые впечатления и богатый материал для научных исследований. Однако корабль под управлением капитана и его жены оказывается в «запретной зоне». Команде предстоит столкнуться с неизведанным и опасным морским чудовищем... Судьба всех находящихся на борту внезапно оказывается в руках студентки. Сумеет ли Шивон что-то предпринять, прежде чем экипаж в полном составе отправится на тот свет?

Присутствует ненормативная лексика!

Без рекламы!

Качество: BDRip 720p
Формат: MKV
Видео кодек: H.264
Аудио кодек: AC3
Видео: MPEG-4 AVC, 4203 Кбит/с, 1280x536
Аудио#1: Русский (AC3, 2 ch, 384 Кбит/с) DVO (LakeFilms)
Аудио#2: Английский (AC3, 6 ch, 640 Кбит/с) Original

Релиз от:
Общее
Уникальный идентификатор : 219431509839033207031372446604064690587 (0xA514F8B7C52735159127EA7C2E8F919B)
Полное имя : D:\Раздача\Morskie.Parazity.2019.BDRip 720p.ExKinoRay.mkv
Формат : Matroska
Версия формата : Version 4 / Version 2
Размер файла : 3,50 Гбайт
Продолжительность : 1 ч. 34 м.
Общий поток : 5322 Кбит/сек
Название фильма : Sea Fever.2019.BDRip 720p.grab777 & ExKinoRay
Дата кодирования : UTC 2020-05-12 12:10:41
Программа кодирования : mkvmerge v7.3.0 ('Nouages') 64bit built on Oct 22 2014 18:53:34
Библиотека кодирования : libebml v1.3.0 + libmatroska v1.4.1

Видео
Идентификатор : 1
Формат : AVC
Формат/Информация : Advanced Video Codec
Профиль формата : High@L4.1
Настройки формата : CABAC / 12 Ref Frames
Параметр CABAC формата : Да
Параметр RefFrames формата : 12 кадров
Идентификатор кодека : V_MPEG4/ISO/AVC
Продолжительность : 1 ч. 34 м.
Битрейт : 4203 Кбит/сек
Ширина : 1280 пикселей
Высота : 536 пикселей
Соотношение сторон : 2,40:1
Режим частоты кадров : Постоянный
Частота кадров : 23,976 (24000/1001) кадра/сек
Цветовое пространство : YUV
Субдискретизация насыщенности : 4:2:0
Битовая глубина : 8 бит
Тип развёртки : Прогрессивная
Бит/(Пиксели*Кадры) : 0.255
Размер потока : 2,77 Гбайт (79%)
Заголовок : CADAVER
Библиотека кодирования : x264 core 160 r3000 33f9e14
Настройки программы : cabac=1 / ref=12 / deblock=1:-3:-3 / analyse=0x3:0x133 / me=umh / subme=10 / psy=1 / psy_rd=1.20:0.00 / mixed_ref=1 / me_range=24 / chroma_me=1 / trellis=2 / 8x8dct=1 / cqm=0 / deadzone=21,11 / fast_pskip=0 / chroma_qp_offset=-2 / threads=17 / lookahead_threads=2 / sliced_threads=0 / nr=0 / decimate=0 / interlaced=0 / bluray_compat=0 / constrained_intra=0 / bframes=8 / b_pyramid=2 / b_adapt=2 / b_bias=0 / direct=3 / weightb=1 / open_gop=0 / weightp=2 / keyint=250 / keyint_min=23 / scenecut=40 / intra_refresh=0 / rc=crf / mbtree=0 / crf=16.0 / qcomp=0.60 / qpmin=0 / qpmax=69 / qpstep=4 / ip_ratio=1.40 / pb_ratio=1.30 / aq=3:0.90
Default : Да
Forced : Нет
Цветовой диапазон : Limited
Коэффициенты матрицы : BT.709

Аудио #1
Идентификатор : 2
Формат : AC-3
Формат/Информация : Audio Coding 3
Параметр Endianness формата : Big
Идентификатор кодека : A_AC3
Продолжительность : 1 ч. 34 м.
Вид битрейта : Постоянный
Битрейт : 384 Кбит/сек
Каналы : 2 канала
Расположение каналов : Front: L R
Частота : 48,0 КГц
Частота кадров : 31,250 кадров/сек (1536 SPF)
Битовая глубина : 16 бит
Метод сжатия : С потерями
Размер потока : 259 Мбайт (7%)
Заголовок : DVO (LakeFilms)
Язык : Russian
ServiceKind/String : Complete Main
Default : Да
Forced : Да

Аудио #2
Идентификатор : 3
Формат : AC-3
Формат/Информация : Audio Coding 3
Параметр Endianness формата : Big
Идентификатор кодека : A_AC3
Продолжительность : 1 ч. 34 м.
Вид битрейта : Постоянный
Битрейт : 640 Кбит/сек
Каналы : 6 каналов
Расположение каналов : Front: L C R, Side: L R, LFE
Частота : 48,0 КГц
Частота кадров : 31,250 кадров/сек (1536 SPF)
Битовая глубина : 16 бит
Метод сжатия : С потерями
Размер потока : 431 Мбайт (12%)
Заголовок : Original
Язык : English
ServiceKind/String : Complete Main
Default : Нет
Forced : Нет

Аудио #3
Идентификатор : 4
Формат : AAC
Формат/Информация : Advanced Audio Codec
Профиль формата : LC
Идентификатор кодека : A_AAC-2
Продолжительность : 1 ч. 34 м.
Битрейт : 92,2 Кбит/сек
Каналы : 2 канала
Расположение каналов : Front: L R
Частота : 48,0 КГц
Частота кадров : 46,875 кадров/сек (1024 SPF)
Метод сжатия : С потерями
Задержка видео : 20 мс.
Размер потока : 62,1 Мбайт (2%)
Заголовок : Commentary
Язык : English
Default : Нет
Forced : Нет

Текст #1
Идентификатор : 5
Формат : UTF-8
Идентификатор кодека : S_TEXT/UTF8
Идентификатор кодека/Информация : UTF-8 Plain Text
Продолжительность : 1 ч. 33 м.
Битрейт : 36 бит/сек
ElementCount : 918
Размер потока : 25,3 Кбайт (0%)
Язык : English
Default : Нет
Forced : Нет

Текст #2
Идентификатор : 6
Формат : UTF-8
Идентификатор кодека : S_TEXT/UTF8
Идентификатор кодека/Информация : UTF-8 Plain Text
Продолжительность : 1 ч. 33 м.
Битрейт : 43 бит/сек
ElementCount : 1321
Размер потока : 30,1 Кбайт (0%)
Заголовок : SDH
Язык : English
Default : Нет
Forced : Нет

Меню
00:00:00.000 : en:Chapter 01
00:13:49.620 : en:Chapter 02
00:33:08.320 : en:Chapter 03
00:52:35.110 : en:Chapter 04
01:11:14.729 : en:Chapter 05
01:26:41.571 : en:Chapter 06

pb.wtf



Скачать Морские паразиты через торрент http://pic1.kartinco.top/images/12/u1twc.jpg Скачать фильм Морские паразиты через торрент бесплантно в хорошем качестве Описание: Изучающая биологию и природные аномалии студентка Шивон отправляется проходить практику на рыболовецкое судно. Поездка обещает ... 8.8 10 11
Info! Золотая раздача, скачанное не засчитывается.
Торрент: Зарегистрирован [2020-05-12 20:32] · скачан: 253 раз
Статус: T временная
Размер: 3.5 GB
Как cкачать? Как скачать Морские паразиты через торрент | qTorrent



Последний раз редактировалось: Mr. Grab (2020-05-13 19:38), всего редактировалось 1 раз

28-11-2019 20:33  

Отключить всю рекламу на сайте

13-05-2020 16:42 Морские паразиты Скачать торрент  

Внимание! После просмотра данного фильма в ваших выражениях может присутствовать ненормативная лексика!... ))))pb.wtf



28-05-2020 19:44 Морские паразиты Скачать торрент  

Спасибо за фильм, скачаю буду смотреть. pb.wtf



    Дорогой пользователь! Огромная просьба, поблагодарите релизера, оцените раздачу и оставьте свои комментарий, если Вы скачали Морские паразиты через торрент бесплатно! Внесите свою лепту в развитие PiratBit!
    Комментировать посты могут только пользователи прошедшие не сложную регистрацию
    Показать сообщения:    

    Морские паразиты через торрент
    Скачать бесплатно Морские паразиты
    Морские паразиты скачать торрент
    Морские паразиты смотреть онлайн
    Cкачать фильм Морские паразиты бесплатно
    Морские паразиты скачать торрент в хорошем качестве
    Морские паразиты смотреть онлайн бесплатно в хорошем качестве


    Вы не можете начинать темы
    Вы не можете отвечать на сообщения
    Вы не можете редактировать свои сообщения
    Вы не можете удалять свои сообщения
    Вы не можете голосовать в опросах
    Вы не можете прикреплять файлы к сообщениям
    Вы можете скачивать файлы