Anonymous, доброй ночи, присоединяйтесь к нам в Telegram!, здесь всегда актуальный адрес сайта, оперативная поддержка и многое другое!

>

5.6

iTunes

7.4

MVO

5.7

MVO

1

7.7

1 сезон

6.8

iTunes

7.3

1 сезон

13

6.7

1 сезон

8.3

RePack

30

ULTIMATE

pack

9.9

Лицензия

ВАЖНО

ИГРА 18+

pack

7.3

RePack

MK11

7.7

RePack

jed

7.8

RePack

fifa19

8.5

RePack

RDR2

RePack

NEED FOR SPEED™ PAYBACK

4 сезон

9 сезон

Бесстыжие 9 сезон

Все сериалы

все сериалы на PB.wtf

RePack

FAR CRY 5

Anonymous, доброй ночи, мы катастрофически не успеваем собрать деньги на оплату серверов, помогите нам пожалуйста 5,10,15р., для нас важна любая помощь . В качестве благодарности мы отключим Вам всю рекламу на сайте (укажите свой ник в строку Ваше имя)!

×
  
Magnet ссылка

Реальные пацаны / Сезон: 12 / Серии: 1-20 из 20 (Жанна Кадникова) [2020, Комедия, HDTV 1080i] pb.wtf

Реальные пацаны через торрент pb.wtf

Размер: 21.96 GB | Добавлен: 1 год 4 мес. назад | Торрент скачан:81 раз
Смотреть онлайн Реальные пацаны | Скачать    Ребята, помогите собрать деньги на оплату серверов!!!

12-05-2020 23:10 Реальные пацаны Скачать торрент  

Реальные пацаны
Год выпуска: 2020
Страна: Россия
Жанр: Комедия
Продолжительность: ~ 00:23:00
Субтитры: отсутствуют

Режиссер: Жанна Кадникова

rating

В ролях: Николай Наумов, Зоя Бербер, Антон Богданов, Владимир Селиванов, Станислав Тляшев, Мария Скорницкая, Валентина Мазунина, Марина Федункив, Армен Бежанян, Игорь Ознобихин, Алексей Базанов, Анастасия Плоскова, Сергей Ершов, Татьяна Ронзина, Любовь Рудометова, Юлия Гришнина, Михаил Чуднов, Юрий Богомолов, Василий Бичев, Анна Шепелева

Описание: Успешные и знаменитые «Реальные пацаны» из гастрольного тура вернутся в Пермь пожинать плоды своей популярности. Больше никогда не работать на дядю! Больше никогда не зависеть от Иваныча! Вечный кайф и полная идиллия. Только вот семейные заботы не дают выдохнуть. Но пацаны смотря вдаль и верят, что даже самая суровая «бытовуха» в итоге разрулится. Так-то всегда так бывает! В новом сезоне героев сериала ждут еще более взрослые и серьезные заботы. ЭКО, ипотека, свой бизнес – настало время новых возможностей! На протяжении 9-ти лет героям сериала удавалось уникальным образом выпутываться из самых разных передряг, сохраняя при этом важные жизненные ценности. Доброта, юмор, любовь и дружба – то, на чем держится мир «Реальных пацанов» не только в сериале ТНТ, но и в реальной жизни. А значит, проблемы обязательно решатся, даже если немного накосячить.

Качество: HDTV 1080i
Формат: TS

Видео: 1920х1080 (16:9), 25 fps, AVC MPEG-4 (x264), High@L4.0 ~ 6500 kbps avg, 0.121 bit/pixel
Аудио: 48 kHz, MPEG Layer 2, 2 ch, ~ 192 kbps avg
скриншот  скриншот  скриншот  скриншот  

Общее
Идентификатор : 1 (0x1)
Полное имя : C:\Realnye.pacany.S12.HDTV.(1080i).ExKinoray\Realnye.pacany.S12.E01.HDTV.(1080i).ExKinoray.ts
Формат : MPEG-TS
Размер файла : 1,20 Гбайт
Продолжительность : 25 м. 9 с.
Режим общего битрейта : Переменный
Общий поток : 6832 Кбит/сек

Видео
Идентификатор : 211 (0xD3)
Идентификатор меню : 1 (0x1)
Формат : AVC
Формат/Информация : Advanced Video Codec
Профиль формата : High@L4
Настройки формата : CABAC / 4 Ref Frames
Параметр CABAC формата : Да
Параметр RefFrames формата : 4 кадра
Идентификатор кодека : 27
Продолжительность : 25 м. 9 с.
Битрейт : 6301 Кбит/сек
Ширина : 1920 пикселей
Высота : 1080 пикселей
Соотношение сторон : 16:9
Частота кадров : 25,000 кадров/сек
Стандарт вещания : Component
Цветовое пространство : YUV
Субдискретизация насыщенности : 4:2:0
Битовая глубина : 8 бит
Тип развёртки : Чересстрочная
Метод сохранения типа развёртки : Раздельные поля
Порядок развёртки : Верхнее поле первое
Бит/(Пиксели*Кадры) : 0.122
Размер потока : 1,11 Гбайт (92%)
Цветовой диапазон : Limited
Основные цвета : BT.709
Характеристики трансфера : BT.709
Коэффициенты матрицы : BT.709

Аудио
Идентификатор : 221 (0xDD)
Идентификатор меню : 1 (0x1)
Формат : MPEG Audio
Версия формата : Version 1
Профиль формата : Layer 2
Идентификатор кодека : 3
Продолжительность : 25 м. 9 с.
Вид битрейта : Постоянный
Битрейт : 192 Кбит/сек
Каналы : 2 канала
Частота : 48,0 КГц
Частота кадров : 41,667 кадра/сек (1152 SPF)
Метод сжатия : С потерями
Задержка видео : -80 мс.
Размер потока : 34,6 Мбайт (3%)
Язык : Russian

Когда раздача ведётся путём добавления новых серий, при каждом добавлении создётся новый торрент. Чтобы начать докачку новой серии, пользователям необходимо сделать следующее:
(1) остановить скачивание,
(2) удалить старый торрент у себя из клиента (старые серии удалять не надо),
(3) скачать новый торрент и запустить его у себя в клиенте вместо старого, при этом указать клиенту путь в старую папку, куда и должно происходить скачивание новых серий.
Ваш клиент при этом должен произвести хеширование (проверку) старой папки (если не производит сам - помогите ему сделать это), и будет докачивать только те серии, которых у вас ещё нет. Старые серии при этом не удаляются, а продолжают раздаваться!
Eсли вы уже удалили старые серии, то предотвратить повторную закачку старых серий можно, отжав галочку в соответсвующих местах при запуске нового торрента. По возможности, желательно не удалять старые серии как можно дольше, чтобы релизер не столько продолжал раздавать старые серии, а смог сконцентрироваться на новых.
pb.wtf



Скачать Реальные пацаны через торрент http://i100.fastpic.ru/big/2018/0312/08/7bbb7422f4838f7de0ece5e23c064808.jpg Скачать, смотреть онлайн Реальные пацаны бесплантно в хорошем качестве Описание: Успешные и знаменитые «Реальные пацаны» из гастрольного тура вернутся в Пермь пожинать плоды своей популярности. Больше никогда ... 7.4 10 12
Торрент: Зарегистрирован [2020-06-11 17:56] · скачан: 81 раз
Статус: √ проверено
Размер: 21.96 GB
Как cкачать? Как скачать Реальные пацаны через торрент | UTorrent

% Раздел Тема Автор DL S | L
TNT serials [ 15.76 GB ] Реальные пацаны / Сезон: 12 / Серии: 1-20 из 20 + Фильм о фильме [2020 WEBRip 1080p] bober100 Скачать
1 | 0
TNT serials [ 6.14 GB ] Реальные пацаны / Сезон: 12 / Серии: 1-20 из 20 + Фильм о фильме [2020 WEBRip-AVC] bober100 Скачать
1 | 0
TNT serials [ 10.73 GB ] Реальные пацаны / Сезон: 12 / Серии: 1-20 из 20 + Фильм о фильме [2020 WEBRip 720p] bober100 Скачать
1 | 0
TNT serials [ 6.84 GB ] Реальные пацаны / Сезон: 12 / Серии: 1-20 из 20 [2020 SATRip] bober100 Скачать
1 | 0
Наши сериалы [ 9.91 GB ] Реальные пацаны / Сезон: 4 Серии: 1-20 из 20 [2012 Комедийный сериал DVB] Оригинал wekotila Скачать
1 | 0
Наши сериалы [ 5.61 GB ] Реальные Пацаны / Сезон: 4 / Серии: 1-20 из 20 [2012 СитКом SATRip] -=Cherry=- Скачать
1 | 0


Последний раз редактировалось: bober100 (2020-06-11 17:56), всего редактировалось 3 раз(а)

28-11-2019 20:33  

Отключить всю рекламу на сайте

05-06-2020 18:26 Реальные пацаны Скачать торрент  

И здесь туда же...8 СЕЗОН ЩАС ИДЕТ. ОТКУДА ВЫ БЕРЕТЕ ТАКИЕ ЦИФРЫ ГОСПОДА УВАЖАЕМЫЕ?pb.wtf



    Дорогой пользователь! Огромная просьба, поблагодарите релизера, оцените раздачу и оставьте свои комментарий, если Вы скачали Реальные пацаны через торрент бесплатно!
    Комментировать посты могут только пользователи прошедшие не сложную регистрацию
    Показать сообщения:    

    Реальные пацаны через торрент
    Скачать бесплатно Реальные пацаны
    Реальные пацаны скачать торрент
    Реальные пацаны смотреть онлайн
    Cкачать фильм Реальные пацаны бесплатно
    Реальные пацаны скачать торрент в хорошем качестве
    Реальные пацаны смотреть онлайн бесплатно в хорошем качестве


    Вы не можете начинать темы
    Вы не можете отвечать на сообщения
    Вы не можете редактировать свои сообщения
    Вы не можете удалять свои сообщения
    Вы не можете голосовать в опросах
    Вы не можете прикреплять файлы к сообщениям
    Вы можете скачивать файлы