Ссылка на приватное зеркало всего за 1$. Внимание количество ограничено!!!

iTunes

iTunes

iTunes

1

iTunes

iTunes

iTunes

iTunes

iTunes

30
pack

$ от Little Big

ВАЖНО

!!Акция!!

Alien_RageХит недели

RePack

Resident Evil 21

ИГРА 18+

pack

RePack

jed

!!Акция!!

Alien_Rage

RePack

fifa19

RePack

Assassins Creed: Odyssey

RePack

NEED FOR SPEED™ PAYBACK

4 сезон

9 сезон

Бесстыжие 9 сезон

Все сериалы

все сериалы на PB.wtf

RePack

FAR CRY 5
  

Реальные пацаны / Сезон: 12 / Серии: 1-17 из 20 (Жанна Кадникова) [2020, Комедия, WEBRip 1080p] pb.wtf

Реальные пацаны через торрент pb.wtf

Размер: 12.97 GB | Добавлен: 1 мес. 3 д. назад | Торрент скачан:5 раз
Скачать  

12-05-2020 23:30 Реальные пацаны Скачать торрент  

Реальные пацаны
Год выпуска: 2020
Страна: Россия
Жанр: Комедия
Продолжительность: ~ 00:23:00
Субтитры: отсутствуют

Режиссер: Жанна Кадникова

rating

В ролях: Николай Наумов, Зоя Бербер, Антон Богданов, Владимир Селиванов, Станислав Тляшев, Мария Скорницкая, Валентина Мазунина, Марина Федункив, Армен Бежанян, Игорь Ознобихин, Алексей Базанов, Анастасия Плоскова, Сергей Ершов, Татьяна Ронзина, Любовь Рудометова, Юлия Гришнина, Михаил Чуднов, Юрий Богомолов, Василий Бичев, Анна Шепелева

Описание: Успешные и знаменитые «Реальные пацаны» из гастрольного тура вернутся в Пермь пожинать плоды своей популярности. Больше никогда не работать на дядю! Больше никогда не зависеть от Иваныча! Вечный кайф и полная идиллия. Только вот семейные заботы не дают выдохнуть. Но пацаны смотря вдаль и верят, что даже самая суровая «бытовуха» в итоге разрулится. Так-то всегда так бывает! В новом сезоне героев сериала ждут еще более взрослые и серьезные заботы. ЭКО, ипотека, свой бизнес – настало время новых возможностей! На протяжении 9-ти лет героям сериала удавалось уникальным образом выпутываться из самых разных передряг, сохраняя при этом важные жизненные ценности. Доброта, юмор, любовь и дружба – то, на чем держится мир «Реальных пацанов» не только в сериале ТНТ, но и в реальной жизни. А значит, проблемы обязательно решатся, даже если немного накосячить.

Качество: WEBRip 1080p
Формат: MKV

Видео: MPEG-4 AVC, 1920x1072 (16:9), 25.000 fps, 4339 Kbps
Аудио: 48.0 kHz, AC3 Dolby Digital, 2/0 (L,R) ch, ~ 192 kbps
скриншот  скриншот  скриншот  скриншот  скриншот  

General

Complete name : Downloads\Realnyje.pacany.s12e01.2020.WEB-DL.(1080p).Getty.mkv
Format : Matroska
Format version : Version 4 / Version 2
File size : 850 MiB
Duration : 25mn 41s
Overall bit rate mode : Variable
Overall bit rate : 4 623 Kbps
Encoded date : UTC 2020-05-12 17:04:07
Writing application : mkvmerge v7.8.0 ('River Man') 32bit built on Mar 27 2015 16:18:02
Writing library : libebml v1.3.1 + libmatroska v1.4.2
DURATION : 00:25:41.440000000
NUMBER_OF_FRAMES : 48170
NUMBER_OF_BYTES : 36994560
_STATISTICS_WRITING_APP : mkvmerge v7.8.0 ('River Man') 32bit built on Mar 27 2015 16:18:02
_STATISTICS_WRITING_DATE_UTC : 2020-05-12 17:04:07
_STATISTICS_TAGS : BPS DURATION NUMBER_OF_FRAMES NUMBER_OF_BYTES
Video #1
ID : 1
Format : AVC
Format/Info : Advanced Video Codec
Format profile : High@L4.0
Format settings, CABAC : Yes
Format settings, ReFrames : 1 frame
Format settings, GOP : M=1, N=50
Codec ID : V_MPEG4/ISO/AVC
Duration : 25mn 41s
Bit rate mode : Variable
Bit rate : 4 339 Kbps
Maximum bit rate : 4 500 Kbps
Width : 1 920 pixels
Height : 1 072 pixels
Display aspect ratio : 16:9
Frame rate mode : Constant
Frame rate : 25.000 fps
Color space : YUV
Chroma subsampling : 4:2:0
Bit depth : 8 bits
Scan type : Progressive
Bits/(Pixel*Frame) : 0.084
Stream size : 797 MiB (94%)
Default : Yes
Forced : No
Audio #2
ID : 2
Format : AC-3
Format/Info : Audio Coding 3
Mode extension : CM (complete main)
Format settings, Endianness : Big
Codec ID : A_AC3
Duration : 25mn 41s
Bit rate mode : Constant
Bit rate : 192 Kbps
Channel(s) : 2 channels
Channel positions : Front: L R
Sampling rate : 48.0 KHz
Bit depth : 16 bits
Compression mode : Lossy
Stream size : 35.3 MiB (4%)
Default : Yes
Forced : No

Когда раздача ведётся путём добавления новых серий, при каждом добавлении создётся новый торрент. Чтобы начать докачку новой серии, пользователям необходимо сделать следующее:
(1) остановить скачивание,
(2) удалить старый торрент у себя из клиента (старые серии удалять не надо),
(3) скачать новый торрент и запустить его у себя в клиенте вместо старого, при этом указать клиенту путь в старую папку, куда и должно происходить скачивание новых серий.
Ваш клиент при этом должен произвести хеширование (проверку) старой папки (если не производит сам - помогите ему сделать это), и будет докачивать только те серии, которых у вас ещё нет. Старые серии при этом не удаляются, а продолжают раздаваться!
Eсли вы уже удалили старые серии, то предотвратить повторную закачку старых серий можно, отжав галочку в соответсвующих местах при запуске нового торрента. По возможности, желательно не удалять старые серии как можно дольше, чтобы релизер не столько продолжал раздавать старые серии, а смог сконцентрироваться на новых.
pb.wtf



Скачать Реальные пацаны через торрент http://i100.fastpic.ru/big/2018/0312/08/7bbb7422f4838f7de0ece5e23c064808.jpg Скачать фильм Реальные пацаны через торрент бесплантно в хорошем качестве Описание: Успешные и знаменитые «Реальные пацаны» из гастрольного тура вернутся в Пермь пожинать плоды своей популярности. Больше никогда ... 8.4 10 11
Торрент: Зарегистрирован [2020-06-08 17:30] · скачан: 5 раз
Статус: √ проверено
Размер: 12.97 GB
Как cкачать? Как скачать Реальные пацаны через торрент | qTorrent

28-11-2019 20:33  

Отключить всю рекламу на сайте

    Дорогой пользователь! Огромная просьба, поблагодарите релизера, оцените раздачу и оставьте свои комментарий, если Вы скачали Реальные пацаны через торрент бесплатно! Внесите свою лепту в развитие PiratBit!
    Комментировать посты могут только пользователи прошедшие не сложную регистрацию
    Показать сообщения:    

    Реальные пацаны через торрент
    Скачать бесплатно Реальные пацаны
    Реальные пацаны скачать торрент
    Реальные пацаны смотреть онлайн
    Cкачать фильм Реальные пацаны бесплатно
    Реальные пацаны скачать торрент в хорошем качестве
    Реальные пацаны смотреть онлайн бесплатно в хорошем качестве


    Вы не можете начинать темы
    Вы не можете отвечать на сообщения
    Вы не можете редактировать свои сообщения
    Вы не можете удалять свои сообщения
    Вы не можете голосовать в опросах
    Вы не можете прикреплять файлы к сообщениям
    Вы можете скачивать файлы