2 сезон

iTunes

1 сезон

1

iTunes

iTunes

iTunes

1 сезон

RePack

30

ИГРА 18+

pack

ВАЖНО

!!Акция!!

Alien_RageХит недели

RePack

MK11
pack

Забери бонус

RePack

jed

!!Акция!!

Alien_Rage

RePack

fifa19

RePack

Assassins Creed: Odyssey

RePack

NEED FOR SPEED™ PAYBACK

4 сезон

9 сезон

Бесстыжие 9 сезон

Все сериалы

все сериалы на PB.wtf

RePack

FAR CRY 5
  

Алёша / Сезон: 1 / Серии: 1-4 из 4 (Юрий Попович) [2020, драма, военный, WEB-DLRip-AVC] pb.wtf

Алёша через торрент pb.wtf

Раздают: 4 [ 0 KB/s ] Качают: 1 [ 0 KB/s ]
Размер: 2.99 GB | Добавлен: 5 мес. 18 д. назад | Торрент скачан:157 раз
Скачать  

13-05-2020 09:25 Алёша Скачать торрент  

Алёша

Страна: Россия
Жанр: драма, военный
Год выпуска: 2020
Продолжительность: ~00:50:00 серия

Перевод: Не требуется
Субтитры: русские (SDH)
Оригинальная аудиодорожка: русский

Сезон: 1
Количество серий: 1 - 4 из 4

Режиссер: Юрий Попович

В ролях: Владимир Епифанцев, Анна Попова, Максим Сапрыкин, Евгения Каверау, Вадим Сквирский, Илья Ясинский, Елисей Вдовиченко, Алиса Дудко

Описание: Лето 1944 года. Разгар Великой Отечественной войны. С одной стороны – отборные немецкие фронтовики, вышколенные солдаты самой опасной и безжалостной армии в мире. С другой – русские партизаны, измотанные, усталые, израненные, голодные, почти забывшие, что такое тепло родного дома, но твердо помнящие одно: за спиной – Родина, поэтому отступать – нельзя.
Главные герои истории – пулеметчик Ефрем Жаворонок и совсем еще мальчик Алёша. Ему всего шестнадцать, и Ефим твёрдо знает: он должен нести ответственность за этого паренька, как за родного сына. Потому что на войне нет чужих детей, матерей, жён или братьев.



Релиз:

Автор рипа: stalkerok

Сэмпл

Качество видео: WEB-DLRip-AVC | Исходник: WEB-DL 1080p NTV
Формат видео: MKV
Видео кодек: AVC
Аудио кодек: AAC
Видео: AVC, ~2000 Кбит/сек, 1024x576 (16:9), 25 кадр/сек
Аудио: AAC, 125 Кбит/сек, 48 КГц, 2.0 - русский
---[Information] [11.05.2020 14:33:18] x264 [info]: frame I:411 Avg QP:17.14 size: 52837
---[Information] [11.05.2020 14:33:18] x264 [info]: frame P:16511 Avg QP:18.89 size: 22920
---[Information] [11.05.2020 14:33:18] x264 [info]: frame B:55411 Avg QP:21.91 size: 6162
---[Information] [11.05.2020 14:33:18] x264 [info]: consecutive B-frames: 1.8% 2.7% 15.3% 18.1% 11.4% 47.5% 1.5% 0.5% 0.2% 0.0% 0.1% 0.0% 0.1% 0.0% 0.1% 0.5%

General
Unique ID : 181810932901210948599624148740232834436 (0x88C78311B86D15E2D2B789219A11ED84)
Complete name : C:\temp\Alesha\Alesha.S01.2020.WEB-DLRip.x264.stalkerok.New-Team\Alesha.E01.2020.WEB-DLRip.x264.stalkerok.New-Team.mkv
Format : Matroska
Format version : Version 4
File size : 751 MiB
Duration : 48 min 13 s
Overall bit rate : 2 178 kb/s
Movie name : Алёша (2020) | Rip by stalkerok
Encoded date : UTC 2020-05-13 09:00:03
Writing application : mkvmerge v46.0.0 ('No Deeper Escape') 64-bit
Writing library : libebml v1.3.10 + libmatroska v1.5.2

Video
ID : 1
Format : AVC
Format/Info : Advanced Video Codec
Format profile : High@L4.1
Format settings : CABAC / 12 Ref Frames
Format settings, CABAC : Yes
Format settings, Reference frames : 12 frames
Codec ID : V_MPEG4/ISO/AVC
Duration : 48 min 13 s
Bit rate : 2 051 kb/s
Width : 1 024 pixels
Height : 576 pixels
Display aspect ratio : 16:9
Frame rate mode : Constant
Frame rate : 25.000 FPS
Color space : YUV
Chroma subsampling : 4:2:0
Bit depth : 8 bits
Scan type : Progressive
Bits/(Pixel*Frame) : 0.139
Stream size : 707 MiB (94%)
Title : Алёша (2020) | Rip by stalkerok
Writing library : x264 core 160 r3000 33f9e14
Encoding settings : cabac=1 / ref=12 / deblock=1:-3:-3 / analyse=0x3:0x133 / me=umh / subme=10 / psy=1 / psy_rd=1.00:0.00 / mixed_ref=1 / me_range=32 / chroma_me=1 / trellis=2 / 8x8dct=1 / cqm=0 / deadzone=21,11 / fast_pskip=0 / chroma_qp_offset=-2 / threads=12 / lookahead_threads=3 / sliced_threads=0 / nr=0 / decimate=1 / interlaced=0 / bluray_compat=0 / constrained_intra=0 / bframes=15 / b_pyramid=2 / b_adapt=2 / b_bias=0 / direct=3 / weightb=1 / open_gop=0 / weightp=2 / keyint=250 / keyint_min=25 / scenecut=40 / intra_refresh=0 / rc_lookahead=60 / rc=crf / mbtree=0 / crf=19.3 / qcomp=0.65 / qpmin=0 / qpmax=69 / qpstep=4 / vbv_maxrate=50000 / vbv_bufsize=62500 / crf_max=0.0 / nal_hrd=none / filler=0 / ip_ratio=1.40 / pb_ratio=1.30 / aq=3:0.90
Default : Yes
Forced : No

Audio
ID : 2
Format : AAC LC
Format/Info : Advanced Audio Codec Low Complexity
Codec ID : A_AAC-2
Duration : 48 min 13 s
Bit rate : 125 kb/s
Channel(s) : 2 channels
Channel layout : L R
Sampling rate : 48.0 kHz
Frame rate : 46.875 FPS (1024 SPF)
Compression mode : Lossy
Stream size : 43.3 MiB (6%)
Language : Russian
Default : Yes
Forced : No

Text
ID : 3
Format : UTF-8
Codec ID : S_TEXT/UTF8
Codec ID/Info : UTF-8 Plain Text
Duration : 47 min 29 s
Bit rate : 85 b/s
Count of elements : 619
Stream size : 29.9 KiB (0%)
Title : SDH
Language : Russian
Default : No
Forced : No
pb.wtf



Скачать Алёша через торрент http://i6.imageban.ru/out/2017/09/18/2ff75c0c358795c5946784cc1680714d.png Скачать фильм Алёша через торрент бесплантно в хорошем качестве Описание: Лето 1944 года. Разгар Великой Отечественной войны. С одной стороны – отборные немецкие фронтовики, вышколенные солдаты самой ... 10 10 4
Торрент: Зарегистрирован [2020-05-13 09:25] · скачан: 157 раз
Статус: √ проверено
Размер: 2.99 GB
Как cкачать? Как скачать Алёша через торрент | qTorrent

% Раздел Тема Автор DL S | L
Наши сериалы [ 8.32 GB ] Алёша / Сезон: 1 / Серии: 1-4 из 4 [2020 военный WEB-DL 1080p] sokol_ok Скачать
6 | 0

28-11-2019 20:33  

Отключить всю рекламу на сайте

    Дорогой пользователь! Огромная просьба, поблагодарите релизера, оцените раздачу и оставьте свои комментарий, если Вы скачали Алёша через торрент бесплатно! Внесите свою лепту в развитие PiratBit!
    Комментировать посты могут только пользователи прошедшие не сложную регистрацию
    Показать сообщения:    

    Алёша через торрент
    Скачать бесплатно Алёша
    Алёша скачать торрент
    Алёша смотреть онлайн
    Cкачать фильм Алёша бесплатно
    Алёша скачать торрент в хорошем качестве
    Алёша смотреть онлайн бесплатно в хорошем качестве


    Вы не можете начинать темы
    Вы не можете отвечать на сообщения
    Вы не можете редактировать свои сообщения
    Вы не можете удалять свои сообщения
    Вы не можете голосовать в опросах
    Вы не можете прикреплять файлы к сообщениям
    Вы можете скачивать файлы