Ссылка на приватное зеркало нашего сайта всего за 1$. Внимание количество ограничено!!!

2 сезон

iTunes

1 сезон

1

iTunes

iTunes

iTunes

1 сезон

RePack

30

ИГРА 18+

pack

ВАЖНО

!!Акция!!

Alien_RageХит недели

RePack

MK11
pack

Забери бонус

RePack

jed

!!Акция!!

Alien_Rage

RePack

fifa19

RePack

Assassins Creed: Odyssey

RePack

NEED FOR SPEED™ PAYBACK

4 сезон

9 сезон

Бесстыжие 9 сезон

Все сериалы

все сериалы на PB.wtf

RePack

FAR CRY 5
  

Северное сияние. Древо колдуна / Серии: 1-2 из 2 (Алексей Праздников) [2020,детектив, WEBRip-AVC] pb.wtf

Северное сияние. Древо колдуна через торрент pb.wtf

Размер: 1.14 GB | Добавлен: 5 мес. 12 д. назад | Торрент скачан:84 раза
Скачать  

15-05-2020 09:08 Северное сияние. Древо колдуна Скачать торрент  

Северное сияние. Древо колдуна

Год выпуска: 2020
Страна: Россия | Марс Медиа Энтертейнмент
Жанр:детектив
Продолжительность: 00:45:00
Субтитры: нет
Режиссёр: Алексей Праздников

В ролях:Ирина Горячева, Анна Дулова, Глафира Козулина, Никита Плащевский, Константин Шелестун, Галина Бокашевская, Виталия Корниенко
Описание:
На остров возвращается Маруся. Она приезжает с женихом — они решили сыграть свадьбу на острове. По древнему карельскому обычаю будущие супруги должны найти карсикко — священное дерево невесты — и повязать на него белые ленты, чтобы силы зла не смогли причинить ей вред. Но накануне свадьбы дерево засыхает, а на стволе появляется зловещий знак — знак близкой смерти. Маруся не верит в предзнаменование, но после торжества в постели новобрачных находят задушенную молодую женщину. Агата должна выяснить, кто желает зла ее помощнице — темные силы или человек, а может быть, Маруся и есть само зло?

Качество: WEBRip-AVC
Формат: MKV
Видео кодек: H.264
Аудио кодек: AC3
Видео: MPEG4 Video (H264), 1024x576,25fps,1600 Kbps,bit/pixel 0.109
Аудио : AC3 48000Hz, stereo, 192 kbps,2 ch
Общее
Уникальный идентификатор : 238846603113052878882692832322057065311 (0xB3B02EB8A6D0F794B94440C39866D35F)
Полное имя : H:\Северное сияние. Древо колдуна\01 серия_Северное сияние. Древо колдуна_rip by_Aleksan55.mkv
Формат : Matroska
Версия формата : Version 2
Размер файла : 582 Мбайт
Продолжительность : 45 м. 22 с.
Общий поток : 1793 Кбит/сек
Дата кодирования : UTC 2020-05-15 08:09:13
Программа кодирования : mkvmerge v7.8.0 ('River Man') 32bit built on Apr 3 2015 12:11:22
Библиотека кодирования : libebml v1.3.1 + libmatroska v1.4.2

Видео
Идентификатор : 1
Формат : AVC
Формат/Информация : Advanced Video Codec
Профиль формата : High@L4.1
Настройки формата : CABAC / 12 Ref Frames
Параметр CABAC формата : Да
Параметр RefFrames формата : 12 кадров
Идентификатор кодека : V_MPEG4/ISO/AVC
Продолжительность : 45 м. 22 с.
Битрейт : 1600 Кбит/сек
Ширина : 1024 пикселя
Высота : 576 пикселей
Соотношение сторон : 16:9
Режим частоты кадров : Постоянный
Частота кадров : 25,000 кадров/сек
Цветовое пространство : YUV
Субдискретизация насыщенности : 4:2:0
Битовая глубина : 8 бит
Тип развёртки : Прогрессивная
Бит/(Пиксели*Кадры) : 0.109
Размер потока : 508 Мбайт (87%)
Библиотека кодирования : x264 core 146 r2538 121396c
Настройки программы : cabac=1 / ref=12 / deblock=1:0:0 / analyse=0x3:0x133 / me=umh / subme=9 / psy=1 / psy_rd=1.00:0.15 / mixed_ref=0 / me_range=24 / chroma_me=1 / trellis=2 / 8x8dct=1 / cqm=0 / deadzone=21,11 / fast_pskip=0 / chroma_qp_offset=-3 / threads=10 / lookahead_threads=5 / sliced_threads=0 / nr=0 / decimate=0 / interlaced=0 / bluray_compat=0 / constrained_intra=0 / bframes=12 / b_pyramid=2 / b_adapt=2 / b_bias=0 / direct=3 / weightb=1 / open_gop=0 / weightp=2 / keyint=250 / keyint_min=25 / scenecut=40 / intra_refresh=0 / rc_lookahead=40 / rc=2pass / mbtree=1 / bitrate=1600 / ratetol=1.0 / qcomp=0.60 / qpmin=0 / qpmax=69 / qpstep=4 / cplxblur=20.0 / qblur=0.5 / ip_ratio=1.40 / aq=1:1.00
Default : Да
Forced : Нет
Цветовой диапазон : Limited
Основные цвета : BT.709
Характеристики трансфера : BT.709
Коэффициенты матрицы : BT.709

Аудио
Идентификатор : 2
Формат : AC-3
Формат/Информация : Audio Coding 3
Коммерческое название : Dolby Digital
Идентификатор кодека : A_AC3
Продолжительность : 45 м. 22 с.
Вид битрейта : Постоянный
Битрейт : 192 Кбит/сек
Каналы : 2 канала
ChannelLayout : L R
Частота : 48,0 КГц
Частота кадров : 31,250 кадров/сек (1536 SPF)
Метод сжатия : С потерями
Размер потока : 62,3 Мбайт (11%)
ServiceKind/String : Complete Main
Default : Да
Forced : Нет
pb.wtf



Скачать Северное сияние. Древо колдуна через торрент http://i112.fastpic.ru/big/2020/0514/65/46fb3afb6dbc2797278558f910d68365.jpg Скачать фильм Северное сияние. Древо колдуна через торрент бесплантно в хорошем качестве Описание:На остров возвращается Маруся. Она приезжает с женихом — они решили сыграть свадьбу на острове. По древнему карельскому обычаю ... 10 10 4
Торрент: Зарегистрирован [2020-05-15 09:08] · скачан: 84 раз
Статус: √ проверено
Размер: 1.14 GB
Как cкачать? Как скачать Северное сияние. Древо колдуна через торрент | qTorrent

28-11-2019 20:33  

Отключить всю рекламу на сайте

    Дорогой пользователь! Огромная просьба, поблагодарите релизера, оцените раздачу и оставьте свои комментарий, если Вы скачали Северное сияние. Древо колдуна через торрент бесплатно! Внесите свою лепту в развитие PiratBit!
    Комментировать посты могут только пользователи прошедшие не сложную регистрацию
    Показать сообщения:    

    Северное сияние. Древо колдуна через торрент
    Скачать бесплатно Северное сияние. Древо колдуна
    Северное сияние. Древо колдуна скачать торрент
    Северное сияние. Древо колдуна смотреть онлайн
    Cкачать фильм Северное сияние. Древо колдуна бесплатно
    Северное сияние. Древо колдуна скачать торрент в хорошем качестве
    Северное сияние. Древо колдуна смотреть онлайн бесплатно в хорошем качестве


    Вы не можете начинать темы
    Вы не можете отвечать на сообщения
    Вы не можете редактировать свои сообщения
    Вы не можете удалять свои сообщения
    Вы не можете голосовать в опросах
    Вы не можете прикреплять файлы к сообщениям
    Вы можете скачивать файлы