Ссылка на приватное зеркало нашего сайта всего за 1$. Внимание количество ограничено!!!

2 сезон

iTunes

1 сезон

1

2 сезон

2 сезон

iTunes

1 сезон

RePack

30

Новинка

ВАЖНО

ИГРА 18+

pack

RePack

MK11
pack

Забери бонус

RePack

jed

!!Акция!!

Alien_Rage

RePack

fifa19

RePack

Assassins Creed: Odyssey

RePack

NEED FOR SPEED™ PAYBACK

4 сезон

9 сезон

Бесстыжие 9 сезон

Все сериалы

все сериалы на PB.wtf

RePack

FAR CRY 5
  

Allen King’s 4-Man Gang Bang [2020 г., Anal Sex, Bareback, Blowjob, Cumshots, Facial, Group Sex Masturbation, Muscles, Rimming, Tattoos, 1080p] pb.wtf

Allen King’s 4-Man Gang Bang через торрент pb.wtf

Размер: 1.6 GB | Добавлен: 6 мес. назад | Торрент скачан:37 раз
Скачать  

15-05-2020 13:56 Allen King’s 4-Man Gang Bang Скачать торрент  

Allen King’s 4-Man Gang Bang
Год выпуска: 2020
Страна: LucasEntertainment.com
Жанр: Anal Sex, Bareback, Blowjob, Cumshots, Facial, Group Sex Masturbation, Muscles, Rimming, Tattoos
Продолжительность: 00:28:01
Перевод: Оригинальный

В ролях: Allen King, Dylan James, Jeffrey Lloyd, Max Arion

Описание: Three of Lucas Entertainment’s biggest, hardest, and roughest cocks are standing alert and ready to fuck Allen King rough, raw, and without mercy in his not-so-innocent little ass. Dylan James, Max Arion, and Jeffrey Lloyd are all packing major equipment in the pants, and they have a pretty good idea what Allen is up to when he invites them to party with him at a gay club in Spain. The three Lucas Men take turns making Allen King squirm as they sodomize and breed his ass!

Доп. информация: официальный релиз ролика - 14.02.2020
Тип HD видео: 1080p
Формат: MP4
Видео кодек: AVC
Аудио кодек: AAC
Видео: AVC, 1920x1080 (16:9), 23.976 fps, 8 000 Kbps
Аудио#1: AAC LC, 48.0 KHz, 2 ch, 192 Kbps
Общее
Полное имя : D:\torrent\novay zagruzka(dok)\2020-02-14 Allen King, Dylan James, Jeffrey Lloyd and Max Arion.mp4
Формат : MPEG-4
Профиль формата : Base Media / Version 2
Идентификатор кодека : mp42 (mp42/mp41)
Размер файла : 1,60 Гбайт
Продолжительность : 28 м. 0 с.
Режим общего битрейта : Переменный
Общий поток : 8 155 Кбит/сек
Дата кодирования : UTC 2020-01-29 19:01:03
Дата пометки : UTC 2020-01-29 19:03:02
TIM : 00:00:00:00
TSC : 24000
TSZ : 1001

Видео
Идентификатор : 1
Формат : AVC
Формат/Информация : Advanced Video Codec
Профиль формата : Main@L5.1
Настройки формата : CABAC / 3 Ref Frames
Параметр CABAC формата : Да
Параметр RefFrames формата : 3 кадра
Идентификатор кодека : avc1
Идентификатор кодека/Информация : Advanced Video Coding
Продолжительность : 28 м. 0 с.
Вид битрейта : Постоянный
Битрейт : 8 000 Кбит/сек
Ширина : 1 920 пикселей
Высота : 1 080 пикселей
Соотношение сторон : 16:9
Режим частоты кадров : Переменный
Частота кадров : 23,976 (24000/1001) кадра/сек
Минимальная частота кадров : 23,976 кадра/сек
Максимальная частота кадров : 24,000 кадра/сек
Стандарт вещания : NTSC
Цветовое пространство : YUV
Субдискретизация насыщенности : 4:2:0
Битовая глубина : 8 бит
Тип развёртки : Прогрессивная
Бит/(Пиксели*Кадры) : 0.161
Размер потока : 1,56 Гбайт (98%)
Язык : English
Дата кодирования : UTC 2020-01-29 19:01:03
Дата пометки : UTC 2020-01-29 19:01:03
Цветовой диапазон : Limited
Codec configuration box : avcC

Аудио
Идентификатор : 2
Формат : AAC LC
Формат/Информация : Advanced Audio Codec Low Complexity
Идентификатор кодека : mp4a-40-2
Продолжительность : 28 м. 0 с.
Вид битрейта : Переменный
Битрейт : 192 Кбит/сек
Максимальный битрейт : 296 Кбит/сек
Каналы : 2 канала
Channel layout : L R
Частота : 48,0 КГц
Частота кадров : 46,875 кадров/сек (1024 SPF)
Метод сжатия : С потерями
Размер потока : 37,9 Мбайт (2%)
Язык : English
Дата кодирования : UTC 2020-01-29 19:01:03
Дата пометки : UTC 2020-01-29 19:01:03

pb.wtf



pack Скачать Allen King’s 4-Man Gang Bang через торрент http://pic1.kartinco.top/images/12/plvdx.jpg Скачать фильм Allen King’s 4-Man Gang Bang [2020 г., Anal Sex, Bareback, Blowjob, Cumshots, Facial, Group Sex Masturbation, Muscles, Rimming, Tattoos, 1080p]через торрент бесплантно в хорошем качестве Описание: Three of Lucas Entertainment’s biggest, hardest, and roughest cocks are standing alert and ready to fuck Allen King rough, raw, ... 10 10 1
Торрент: Зарегистрирован [2020-05-15 13:56] · скачан: 37 раз
Статус: √ проверено
Размер: 1.6 GB
Как cкачать? Как скачать Allen King’s 4-Man Gang Bang через торрент | qTorrent

28-11-2019 20:33  

Отключить всю рекламу на сайте

    Дорогой пользователь! Огромная просьба, поблагодарите релизера, оцените раздачу и оставьте свои комментарий, если Вы скачали Allen King’s 4-Man Gang Bang через торрент бесплатно! Внесите свою лепту в развитие PiratBit!
    Комментировать посты могут только пользователи прошедшие не сложную регистрацию
    Показать сообщения:    

    Allen King’s 4-Man Gang Bang через торрент
    Скачать бесплатно Allen King’s 4-Man Gang Bang
    Allen King’s 4-Man Gang Bang скачать торрент
    Allen King’s 4-Man Gang Bang смотреть онлайн
    Cкачать фильм Allen King’s 4-Man Gang Bang бесплатно
    Allen King’s 4-Man Gang Bang скачать торрент в хорошем качестве
    Allen King’s 4-Man Gang Bang смотреть онлайн бесплатно в хорошем качестве


    Вы не можете начинать темы
    Вы не можете отвечать на сообщения
    Вы не можете редактировать свои сообщения
    Вы не можете удалять свои сообщения
    Вы не можете голосовать в опросах
    Вы не можете прикреплять файлы к сообщениям
    Вы можете скачивать файлы