Ссылка на приватное зеркало нашего сайта всего за 1$. Внимание количество ограничено!!!

2 сезон

iTunes

1 сезон

1

2 сезон

2 сезон

iTunes

1 сезон

RePack

30

Новинка

ВАЖНО

ИГРА 18+

pack

RePack

MK11
pack

Забери бонус

RePack

jed

!!Акция!!

Alien_Rage

RePack

fifa19

RePack

Assassins Creed: Odyssey

RePack

NEED FOR SPEED™ PAYBACK

4 сезон

9 сезон

Бесстыжие 9 сезон

Все сериалы

все сериалы на PB.wtf

RePack

FAR CRY 5
  

О бесконечности / Om det oändliga / About Endlessness (Рой Андерссон) [2019, Драма, WEB-DL 1080p] MVO [iTunes] pb.wtf

О бесконечности через торрент pb.wtf

Размер: 3.03 GB | Добавлен: 6 мес. назад | Торрент скачан:57 раз
Скачать  

15-05-2020 18:47 О бесконечности Скачать торрент  

О бесконечности | Om det oändliga | About Endlessness
Год выпуска: 2019
Страна: Швеция, Германия, Норвегия, Франция
Студия: Roy Andersson Filmproduktion AB, 4 1/2 Film, Arte France Cinéma
Жанр: Драма
Продолжительность: 01:16:04
Перевод: Профессиональный (многоголосый) | iTunes
Субтитры: отсутствуют

Режиссер: Рой Андерссон

rating

В ролях: Мартин Сернер, Джессика Лотандер, Татьяна Делоне, Андерс Хелльстрём, Бенгт Бергиус, Аня Бромс, Мари Бурман, Аманда Дэвис, Карин Энгман, Ян-Эйе Ферлинг

Описание: Словно ангелы в «небе над Берлином», они парят над городом подобно влюбленным Марка Шагала. Рассказчица, будто сказочная Шахерезада, плетет кружева городских историй, заглядывает за закрытые окна и проникает в чужие сны, наблюдая за чередой событий обычной жизни с ее банальностью и красотой.

Качество: WEB-DL 1080p
Формат: MKV

Видео: MPEG-4 AVC, 5313 Kb/s, 1920x1080, 24.000 FPS
Аудио: 48 kHz, AC3 Dolby Digital, 3/2 (L,C,R,l,r) + LFE ch, ~384 kbps
скриншот  скриншот  скриншот  скриншот  

Video
ID: 1
Format: AVC
Format/Info: Advanced Video Codec
Format profile: High@L4
Format settings: CABAC / 4 Ref Frames
Format settings, CABAC: Yes
Format settings, Reference: 4 frames
Codec ID: V_MPEG4/ISO/AVC
Duration: 1 h 16 min
Bit rate: 5 313 kb/s
Width: 1 920 pixels
Height: 1 080 pixels
Display aspect ratio: 16:9
Frame rate mode: Constant
Frame rate: 24.000 FPS
Color space: YUV
Chroma subsampling: 4:2:0
Bit depth: 8 bits
Scan type: Progressive
Bits/(Pixel*Frame): 0.107
Stream size: 2.82 GiB (93%)
Title: O_BESKONE4NOSTI_2019_WEB-DL_1080p-BLUEBIRD
Language: English
Default: Yes
Forced: No
Color range: Limited
Color primaries: BT.709
Transfer characteristics: BT.709
Matrix coefficients: BT.709

Audio
ID: 2
Format: AC-3
Format/Info: Audio Coding 3
Commercial name: Dolby Digital
Codec ID: A_AC3
Duration: 1 h 16 min
Bit rate mode: Constant
Bit rate: 384 kb/s
Channel(s): 6 channels
Channel layout: L R C LFE Ls Rs
Sampling rate: 48.0 kHz
Frame rate: 31.250 FPS (1536 SPF)
Compression mode: Lossy
Delay relative to video: -42 ms
Stream size: 209 MiB (7%)
Title: [MVO] DD 5.1 @ 384 kbps (iTunes)
Language: Russian
Service kind: Complete Main
Default: Yes
Forced: No

Menu
00:00:00.000: en:Глава 1
00:02:01.500: en:Глава 2
00:10:17.375: en:Глава 3
00:19:24.000: en:Глава 4
00:27:39.791: en:Глава 5
00:30:44.499: en:Глава 6
00:38:14.999: en:Глава 7
00:44:38.165: en:Глава 8
00:51:11.415: en:Глава 9
00:53:43.331: en:Глава 10
00:59:22.289: en:Глава 11
01:08:10.247: en:Глава 12

pb.wtf



Скачать О бесконечности через торрент https://b.radikal.ru/b25/2005/4c/20ac526cff6d.png Скачать фильм О бесконечности через торрент бесплантно в хорошем качестве Описание: Словно ангелы в «небе над Берлином», они парят над городом подобно влюбленным Марка Шагала. Рассказчица, будто сказочная ... 10 10 3
Торрент: Зарегистрирован [2020-05-15 18:47] · скачан: 57 раз
Статус: √ проверено
Размер: 3.03 GB
Как cкачать? Как скачать О бесконечности через торрент | qTorrent

% Раздел Тема Автор DL S | L
Фильмы 2019-2020 [DVDrip, WEB-DLRip, HDrip] (DUB, MVO) [ 1.11 GB ] О бесконечности / Om det oändliga / About Endlessness [2019 WEB-DLRip] MVO bober100 Скачать
1 | 0

28-11-2019 20:33  

Отключить всю рекламу на сайте

    Дорогой пользователь! Огромная просьба, поблагодарите релизера, оцените раздачу и оставьте свои комментарий, если Вы скачали О бесконечности через торрент бесплатно! Внесите свою лепту в развитие PiratBit!
    Комментировать посты могут только пользователи прошедшие не сложную регистрацию
    Показать сообщения:    

    О бесконечности через торрент
    Скачать бесплатно О бесконечности
    О бесконечности скачать торрент
    О бесконечности смотреть онлайн
    Cкачать фильм О бесконечности бесплатно
    О бесконечности скачать торрент в хорошем качестве
    О бесконечности смотреть онлайн бесплатно в хорошем качестве


    Вы не можете начинать темы
    Вы не можете отвечать на сообщения
    Вы не можете редактировать свои сообщения
    Вы не можете удалять свои сообщения
    Вы не можете голосовать в опросах
    Вы не можете прикреплять файлы к сообщениям
    Вы можете скачивать файлы