Ссылка на приватное зеркало нашего сайта всего за 1$. Внимание количество ограничено!!!

2 сезон

iTunes

1 сезон

1

2 сезон

2 сезон

iTunes

1 сезон

RePack

30

Ultimate

ВАЖНО

ИГРА 18+

pack

RePack

MK11
pack

Забери бонус

RePack

jed

!!Акция!!

Alien_Rage

RePack

fifa19

RePack

Assassins Creed: Odyssey

RePack

NEED FOR SPEED™ PAYBACK

4 сезон

9 сезон

Бесстыжие 9 сезон

Все сериалы

все сериалы на PB.wtf

RePack

FAR CRY 5
  

Ходячий призрак / The Ghost Who Walks (Коуди Стоукс) [2019, Драма, криминал, WEB-DL 1080p] MVO [Creative Arts Media] pb.wtf

Ходячий призрак через торрент pb.wtf

Размер: 3.85 GB | Добавлен: 6 мес. назад | Торрент скачан:119 раз
Скачать  

16-05-2020 02:55 Ходячий призрак Скачать торрент  

Ходячий призрак | The Ghost Who Walks
Год выпуска: 2019
Страна: США
Студия: Ghost Walkers
Жанр: Драма, криминал
Продолжительность: 01:46:40
Перевод: Профессиональный (многоголосый) | Официальный перевод по заказу Creative Arts Media
Субтитры: отсутствуют

Режиссер: Коуди Стоукс

rating

В ролях: Гарлэнд Скотт, Фрэнк Мосли, Алексия Расмуссен, Гил Дарнелл, Даша Некрасова, Натталье Рэндалл, Линда Кеннеди, Питер Майер, Кертис Йорк, Дэннис Лебби

Описание: Нолан выбрал для себя криминальный путь, за что ответил сполна. Его приговорили к тюремному заключению. Проведя в местах лишения свободы долгие пять лет, он полностью переосмыслил свою жизнь. Герой не хочет возвращаться к преступной деятельности, а мечтает начать жизнь честного человека рядом с любимой женой и маленькой дочкой. Но это кажется невозможным, поскольку ему дали очень большой срок. Тогда Нолан решил пойти на сделку с полицией. Он выдал все, что знал о мафиозном боссе, на которого работал долгие годы. За это заключенный получил условно досрочное освобождение. Теперь он спешит к своим родным, чтобы вместе с ними в срочном порядке покинуть родной город. Нолан понимает, что предателей никто не любит и на него объявлена охота.

Качество: WEB-DL 1080p
Формат: MKV

Видео: MPEG-4 AVC, 4494 Кбит/с, 1920x718
Аудио#1: Русский (AC3, 2 ch, 192 Кбит/с)
Аудио#2: английский (AC3, 6 ch, 384 Кбит/c)
скриншот  скриншот  скриншот  скриншот  

Общее
Уникальный идентификатор : 186064820101775808987224076312869866397 (0x8BFAC7E6A4F3CF90A92C55441DBC0B9D)
Полное имя : C:\The.Ghost.Who.Walks.2019.1080p.WEB-DL.(1080p).ExKinoRay.mkv
Формат : Matroska
Версия формата : Version 2
Размер файла : 3,85 Гбайт
Продолжительность : 1 ч. 46 м.
Общий поток : 5173 Кбит/сек
Дата кодирования : UTC 2020-05-15 15:11:21
Программа кодирования : mkvmerge v5.8.0 ('No Sleep / Pillow') built on Sep 2 2012 15:37:04
Библиотека кодирования : libebml v1.2.3 + libmatroska v1.3.0

Видео
Идентификатор : 1
Формат : AVC
Формат/Информация : Advanced Video Codec
Профиль формата : High@L4
Настройки формата : CABAC / 5 Ref Frames
Параметр CABAC формата : Да
Параметр RefFrames формата : 5 кадров
Идентификатор кодека : V_MPEG4/ISO/AVC
Продолжительность : 1 ч. 46 м.
Битрейт : 4494 Кбит/сек
Ширина : 1920 пикселей
Высота : 718 пикселей
Соотношение сторон : 2,674
Режим частоты кадров : Постоянный
Частота кадров : 23,976 (24000/1001) кадра/сек
Цветовое пространство : YUV
Субдискретизация насыщенности : 4:2:0
Битовая глубина : 8 бит
Тип развёртки : Прогрессивная
Бит/(Пиксели*Кадры) : 0.136
Размер потока : 3,35 Гбайт (87%)
Язык : English
Default : Да
Forced : Нет
Цветовой диапазон : Limited
Основные цвета : BT.709
Характеристики трансфера : BT.709
Коэффициенты матрицы : BT.709

Аудио #1
Идентификатор : 2
Формат : AC-3
Формат/Информация : Audio Coding 3
Коммерческое название : Dolby Digital
Идентификатор кодека : A_AC3
Продолжительность : 1 ч. 46 м.
Вид битрейта : Постоянный
Битрейт : 192 Кбит/сек
Каналы : 2 канала
ChannelLayout : L R
Частота : 48,0 КГц
Частота кадров : 31,250 кадров/сек (1536 SPF)
Битовая глубина : 16 бит
Метод сжатия : С потерями
Размер потока : 146 Мбайт (4%)
Язык : Russian
ServiceKind/String : Complete Main
Default : Да
Forced : Нет

Аудио #2
Идентификатор : 3
Формат : AC-3
Формат/Информация : Audio Coding 3
Коммерческое название : Dolby Digital
Идентификатор кодека : A_AC3
Продолжительность : 1 ч. 46 м.
Вид битрейта : Постоянный
Битрейт : 384 Кбит/сек
Каналы : 6 каналов
ChannelLayout : L R C LFE Ls Rs
Частота : 48,0 КГц
Частота кадров : 31,250 кадров/сек (1536 SPF)
Битовая глубина : 16 бит
Метод сжатия : С потерями
Размер потока : 293 Мбайт (7%)
Язык : English
ServiceKind/String : Complete Main
Default : Нет
Forced : Нет

Текст
Идентификатор : 4
Формат : UTF-8
Идентификатор кодека : S_TEXT/UTF8
Идентификатор кодека/Информация : UTF-8 Plain Text
Язык : English
Default : Нет
Forced : Нет

Меню
00:00:00.000 : en:Chapter 1
00:09:42.582 : en:Chapter 2
00:20:37.235 : en:Chapter 3
00:30:12.810 : en:Chapter 4
00:44:51.687 : en:Chapter 5
00:51:03.058 : en:Chapter 6
01:00:08.603 : en:Chapter 7
01:13:01.375 : en:Chapter 8
01:20:26.819 : en:Chapter 9
01:30:11.402 : en:Chapter 10
01:42:35.145 : en:Chapter 11

pb.wtf



Скачать Ходячий призрак через торрент https://c.radikal.ru/c14/2005/57/0f7b9417ac16.jpg Скачать фильм Ходячий призрак через торрент бесплантно в хорошем качестве Описание: Нолан выбрал для себя криминальный путь, за что ответил сполна. Его приговорили к тюремному заключению. Проведя в местах лишения ... 10 10 6
× Info от релизера! Реклама, любого вида, отсутствует.
Торрент: Зарегистрирован [2020-05-16 02:55] · скачан: 119 раз
Статус: T временная
Размер: 3.85 GB
Как cкачать? Как скачать Ходячий призрак через торрент | qTorrent

% Раздел Тема Автор DL S | L
T Фильмы 2019-2020 [DVDrip, WEB-DLRip, HDrip] (DUB, MVO) [ 1.37 GB ] Ходячий призрак / The Ghost Who Walks [2019 WEB-DLRip] MVO [Creative Arts Media] bober100 Скачать
1 | 0

28-11-2019 20:33  

Отключить всю рекламу на сайте

    Дорогой пользователь! Огромная просьба, поблагодарите релизера, оцените раздачу и оставьте свои комментарий, если Вы скачали Ходячий призрак через торрент бесплатно! Внесите свою лепту в развитие PiratBit!
    Комментировать посты могут только пользователи прошедшие не сложную регистрацию
    Показать сообщения:    

    Ходячий призрак через торрент
    Скачать бесплатно Ходячий призрак
    Ходячий призрак скачать торрент
    Ходячий призрак смотреть онлайн
    Cкачать фильм Ходячий призрак бесплатно
    Ходячий призрак скачать торрент в хорошем качестве
    Ходячий призрак смотреть онлайн бесплатно в хорошем качестве


    Вы не можете начинать темы
    Вы не можете отвечать на сообщения
    Вы не можете редактировать свои сообщения
    Вы не можете удалять свои сообщения
    Вы не можете голосовать в опросах
    Вы не можете прикреплять файлы к сообщениям
    Вы можете скачивать файлы