Ссылка на приватное зеркало нашего сайта всего за 1$. Внимание количество ограничено!!!

2 сезон

iTunes

1 сезон

1

iTunes

iTunes

iTunes

1 сезон

RePack

30

ИГРА 18+

pack

ВАЖНО

!!Акция!!

Alien_RageХит недели

RePack

MK11
pack

Забери бонус

RePack

jed

!!Акция!!

Alien_Rage

RePack

fifa19

RePack

Assassins Creed: Odyssey

RePack

NEED FOR SPEED™ PAYBACK

4 сезон

9 сезон

Бесстыжие 9 сезон

Все сериалы

все сериалы на PB.wtf

RePack

FAR CRY 5
  

Мужчина в темноте в 3Д / Man in the Dark 3D (Лью Лэндерс / Lew Landers) [1953, фильм-нуар, триллер, драма, криминал, BDRip, 1080p] OverUnder / Вертикальная стереопара (VO) pb.wtf

Мужчина в темноте в 3Д через торрент pb.wtf

Размер: 18.15 GB | Добавлен: 5 мес. 3 д. назад | Торрент скачан:1 раз
Скачать  

16-05-2020 13:20 Мужчина в темноте в 3Д Скачать торрент  

Мужчина в темноте / Man in the Dark

Год выпуска: 1953
Страна: США (Columbia Pictures)
Жанр: фильм-нуар, триллер, драма, криминал
Продолжительность: 01:07:29

Перевод: Любительский одноголосый закадровый(NoNamed) (перевод любительский - Ash61)
Русские субтитры: нет
Режиссер: Лью Лэндерс / Lew Landers

В ролях: Эдмонд О’Брайен, Одри Тоттер, Тед де Корсия, Хорас МакМахон, Ник Дэннис, Дейтон Ламмис, Дэн Рисс, Крис Алькайде, Фред Олдрич, Leonard Bremen

Описание: Осужденный грабитель подвергается экспериментальной операции на головном мозге, с целью удалить у него преступные наклонности. Операция стирает все воспоминания о его прошлой жизни, включая то, где он спрятал добычу. Его бывшие дружки похищают его и пытаются выбить из него местонахождение украденного. Его воспоминания возвращаются в виде странных снов, и он со своей прежней девушкой пытаются найти ключи, которые приведут их к деньгам.

Сэмпл: http://sendfile.su/1561248

Качество: BDrip, 1080p
Контейнер: MKV
Формат 3D: OverUnder / Вертикальная стереопара
Порядок ракурсов: левый ракурс первый
Видео кодек: x264
Аудио кодек: AC3
Видео: AVC / High@L5.0 / 23,976 fps / 1920х2160 / 36,8 Мбит/сек
Аудио: Русский / AC3 / 48 KHz / 2.0 ch / 448 Kbps (VO - NoNamed) (моно)
Аудио 2: Английский / AC3 / 48 KHz / 1 ch / 448 Kbps (Original - BD 3D)

ВНИМАНИЕ ! На встроенных ТВ-плеерах работать не будет!!!

ТВ Samsung в названии которого есть надпись Ultra HD , и LG Ultra HD 800 серии, LG C6P, Xiaomi Mi TV 2 воспроизводят полные стереопары встроенными плеерами
Железные плееры на которых воспроизводятся полные стереопары:Popcorn C-200, Popcorn a-400, Dune HD Smart D1 , Dune HD DUO , Dune HD Smart H1 , Dune HD Smart B1 , Dune HD Max , Dune HD TV-303D, Dune HD TV-102, Dune HD Base 3D, Philips HMP7001, Aura HD, MECOOL BB2, Zidoo x9s, Lake I Cloud, MiBox 3
Чтобы изображение было на весь экран в плеере выставляем, если рип 1920х1600 - то выставляем 2.35:1 , если 1920х2160 - то выставляем 16:9
Общее
Уникальный идентификатор : 232923082774343230334572238322676375607 (0xAF3B5A9EC9ACCD5397E961020D35A037)
Полное имя : E:\видео\Man in the Dark.Rip by SeRoGa00.mkv
Формат : Matroska
Версия формата : Version 2
Размер файла : 18,1 Гбайт
Продолжительность : 1 ч. 7 м.
Общий поток : 38,5 Мбит/сек
Дата кодирования : UTC 2020-05-16 12:36:30
Программа кодирования : mkvmerge v3.4.0 ('Rapunzel') сборка от May 15 2010 09:38:20
Библиотека кодирования : libebml v0.8.0 + libmatroska v0.9.0

Видео
Идентификатор : 1
Формат : AVC
Формат/Информация : Advanced Video Codec
Профиль формата : High@L5.0
Параметр CABAC формата : Да
Параметр ReFrames формата : 4 кадра
Идентификатор кодека : V_MPEG4/ISO/AVC
Продолжительность : 1 ч. 7 м.
Битрейт : 36,8 Мбит/сек
Ширина : 1920 пикселей
Высота : 2160 пикселей
Соотношение сторон : 0,889
Частота кадров : 23,976 кадра/сек
Цветовое пространство : YUV
Субдискретизация насыщенности : 4:2:0
Битовая глубина : 8 бит
Тип развёртки : Прогрессивная
Бит/(Пиксели*Кадры) : 0.371
Размер потока : 17,4 Гбайт (96%)
Заголовок : Rip by SeRoGa00
Библиотека кодирования : x264 core 157 r2969 d4099dd
Настройки программы : cabac=1 / ref=4 / deblock=1:-3:-3 / analyse=0x3:0x113 / me=umh / subme=10 / psy=1 / psy_rd=1.00:0.15 / mixed_ref=1 / me_range=24 / chroma_me=1 / trellis=2 / 8x8dct=1 / cqm=0 / deadzone=21,11 / fast_pskip=1 / chroma_qp_offset=-3 / threads=12 / lookahead_threads=6 / sliced_threads=0 / nr=0 / decimate=0 / interlaced=0 / bluray_compat=0 / constrained_intra=0 / bframes=10 / b_pyramid=2 / b_adapt=2 / b_bias=0 / direct=3 / weightb=1 / open_gop=0 / weightp=2 / keyint=250 / keyint_min=23 / scenecut=40 / intra_refresh=0 / rc_lookahead=60 / rc=crf / mbtree=1 / crf=18.0 / qcomp=0.60 / qpmin=10 / qpmax=69 / qpstep=4 / vbv_maxrate=40000 / vbv_bufsize=40000 / crf_max=0.0 / nal_hrd=none / filler=0 / ip_ratio=1.40 / aq=1:1.00
Язык : English
Default : Нет
Forced : Нет

Аудио #1
Идентификатор : 2
Формат : AC-3
Формат/Информация : Audio Coding 3
Расширение режима : CM (complete main)
Параметр Endianness формата : Big
Идентификатор кодека : A_AC3
Продолжительность : 1 ч. 7 м.
Вид битрейта : Постоянный
Битрейт : 448 Кбит/сек
Каналы : 2 канала
Расположение каналов : Front: L R
Частота : 48,0 КГц
Битовая глубина : 16 бит
Метод сжатия : С потерями
Размер потока : 216 Мбайт (1%)
Язык : Russian
Default : Да
Forced : Нет

Аудио #2
Идентификатор : 3
Формат : AC-3
Формат/Информация : Audio Coding 3
Расширение режима : CM (complete main)
Параметр Endianness формата : Big
Идентификатор кодека : A_AC3
Продолжительность : 1 ч. 7 м.
Вид битрейта : Постоянный
Битрейт : 448 Кбит/сек
Каналы : 1 канал
Расположение каналов : Front: C
Частота : 48,0 КГц
Битовая глубина : 16 бит
Метод сжатия : С потерями
Размер потока : 216 Мбайт (1%)
Язык : English
Default : Нет
Forced : Нет

Меню
00:00:00.000 : :1
00:00:59.268 : :2
00:06:05.532 : :3
00:10:58.241 : :4
00:19:32.046 : :5
00:27:55.340 : :6
00:34:36.866 : :7
00:39:52.557 : :8
00:47:08.451 : :9
00:53:58.152 : :10
00:59:53.590 : :11
01:07:15.782 : :12
скриншот  

скриншот  

скриншот  

скриншот  

скриншот  

скриншот  
pb.wtf



Скачать Мужчина в темноте в 3Д через торрент https://d.radikal.ru/d34/2005/9f/dc18dbba0537.png Скачать фильм Мужчина в темноте в 3Д через торрент бесплантно в хорошем качестве Описание: Осужденный грабитель подвергается экспериментальной операции на головном мозге, с целью удалить у него преступные наклонности. ... 10 10 1
Торрент: Зарегистрирован [2020-05-16 13:20] · скачан: 1 раз
Статус: √ проверено
Размер: 18.15 GB
Как cкачать? Как скачать Мужчина в темноте в 3Д через торрент | qTorrent

28-11-2019 20:33  

Отключить всю рекламу на сайте

    Дорогой пользователь! Огромная просьба, поблагодарите релизера, оцените раздачу и оставьте свои комментарий, если Вы скачали Мужчина в темноте в 3Д через торрент бесплатно! Внесите свою лепту в развитие PiratBit!
    Комментировать посты могут только пользователи прошедшие не сложную регистрацию
    Показать сообщения:    

    Мужчина в темноте в 3Д через торрент
    Скачать бесплатно Мужчина в темноте в 3Д
    Мужчина в темноте в 3Д скачать торрент
    Мужчина в темноте в 3Д смотреть онлайн
    Cкачать фильм Мужчина в темноте в 3Д бесплатно
    Мужчина в темноте в 3Д скачать торрент в хорошем качестве
    Мужчина в темноте в 3Д смотреть онлайн бесплатно в хорошем качестве


    Вы не можете начинать темы
    Вы не можете отвечать на сообщения
    Вы не можете редактировать свои сообщения
    Вы не можете удалять свои сообщения
    Вы не можете голосовать в опросах
    Вы не можете прикреплять файлы к сообщениям
    Вы можете скачивать файлы