Ссылка на приватное зеркало нашего сайта всего за 1$. Внимание количество ограничено!!!

2 сезон

iTunes

1 сезон

1

iTunes

iTunes

iTunes

1 сезон

RePack

30

ИГРА 18+

pack

ВАЖНО

!!Акция!!

Alien_RageХит недели

RePack

MK11
pack

Забери бонус

RePack

jed

!!Акция!!

Alien_Rage

RePack

fifa19

RePack

Assassins Creed: Odyssey

RePack

NEED FOR SPEED™ PAYBACK

4 сезон

9 сезон

Бесстыжие 9 сезон

Все сериалы

все сериалы на PB.wtf

RePack

FAR CRY 5
  

Драйв / Серии: 1-8 из 8 (Анарио Мамедов) [2020, боевик, WEBRip-AVC] pb.wtf

Драйв через торрент pb.wtf

Размер: 4.46 GB | Добавлен: 5 мес. 3 д. назад | Торрент скачан:110 раз
Скачать  

16-05-2020 19:22 Драйв Скачать торрент  

Драйв

Год выпуска: 2020
Страна: Россия | Epic Media
Жанр: боевик
Продолжительность: 00:48:00
Субтитры: нет
Режиссёр: Анарио Мамедов

В ролях:Владимир Епифанцев, Николай Фоменко, Руслан Корнеков, Чеслав Головинец, Стася Милославская, Вера Панфилова, Станислав Коломоец, Игорь Сигаев, Евгений Марков, Александр Лучинин
Описание:
Главному герою фильма Антону, каскадёру и фанату быстрой езды, поставлен смертельный диагноз. Однако он не отчаивается и продолжает работать, сопротивляться болезни и участвовать в гонках. Положение осложнено тем, что в мероприятие вовлечены криминальные структуры, и, однажды, пути преступников и главного героя пересекаются.

Качество: WEBRip-AVC
Формат: MKV
Видео кодек: H.264
Аудио кодек: AC3
Видео: MPEG4 Video (H264), 1024x576,25fps,1500 Kbps,bit/pixel 0.102
Аудио : AC3 44,1Hz, stereo, 192 kbps,2 ch
Общее
Уникальный идентификатор : 215323811159994213264605854979126555861 (0xA1FDDB8965A07849B94FEE71947D74D5)
Полное имя : G:\Драйв\01 серия_Драйв_rip by_Aleksan55.mkv
Формат : Matroska
Версия формата : Version 2
Размер файла : 584 Мбайт
Продолжительность : 48 м. 11 с.
Общий поток : 1694 Кбит/сек
Дата кодирования : UTC 2020-05-16 18:38:01
Программа кодирования : mkvmerge v7.8.0 ('River Man') 32bit built on Apr 3 2015 12:11:22
Библиотека кодирования : libebml v1.3.1 + libmatroska v1.4.2

Видео
Идентификатор : 1
Формат : AVC
Формат/Информация : Advanced Video Codec
Профиль формата : High@L4.1
Настройки формата : CABAC / 12 Ref Frames
Параметр CABAC формата : Да
Параметр RefFrames формата : 12 кадров
Идентификатор кодека : V_MPEG4/ISO/AVC
Продолжительность : 48 м. 11 с.
Битрейт : 1500 Кбит/сек
Ширина : 1024 пикселя
Высота : 576 пикселей
Соотношение сторон : 16:9
Режим частоты кадров : Постоянный
Частота кадров : 25,000 кадров/сек
Цветовое пространство : YUV
Субдискретизация насыщенности : 4:2:0
Битовая глубина : 8 бит
Тип развёртки : Прогрессивная
Бит/(Пиксели*Кадры) : 0.102
Размер потока : 506 Мбайт (87%)
Библиотека кодирования : x264 core 146 r2538 121396c
Настройки программы : cabac=1 / ref=12 / deblock=1:-2:-2 / analyse=0x3:0x133 / me=umh / subme=9 / psy=1 / psy_rd=1.00:0.15 / mixed_ref=0 / me_range=24 / chroma_me=1 / trellis=2 / 8x8dct=1 / cqm=0 / deadzone=21,11 / fast_pskip=0 / chroma_qp_offset=-3 / threads=10 / lookahead_threads=5 / sliced_threads=0 / nr=0 / decimate=0 / interlaced=0 / bluray_compat=0 / constrained_intra=0 / bframes=12 / b_pyramid=2 / b_adapt=2 / b_bias=0 / direct=3 / weightb=1 / open_gop=0 / weightp=2 / keyint=250 / keyint_min=25 / scenecut=40 / intra_refresh=0 / rc_lookahead=40 / rc=2pass / mbtree=1 / bitrate=1500 / ratetol=1.0 / qcomp=0.60 / qpmin=0 / qpmax=69 / qpstep=4 / cplxblur=20.0 / qblur=0.5 / ip_ratio=1.40 / aq=1:1.00
Default : Да
Forced : Нет
Цветовой диапазон : Limited
Основные цвета : BT.709
Характеристики трансфера : BT.709
Коэффициенты матрицы : BT.709

Аудио
Идентификатор : 2
Формат : AC-3
Формат/Информация : Audio Coding 3
Коммерческое название : Dolby Digital
Идентификатор кодека : A_AC3
Продолжительность : 48 м. 11 с.
Вид битрейта : Постоянный
Битрейт : 192 Кбит/сек
Каналы : 2 канала
ChannelLayout : L R
Частота : 44,1 КГц
Частота кадров : 28,711 кадров/сек (1536 SPF)
Метод сжатия : С потерями
Размер потока : 66,2 Мбайт (11%)
ServiceKind/String : Complete Main
Default : Да
Forced : Нет
Добавлены 5-8 серии.pb.wtf



Скачать Драйв через торрент http://i112.fastpic.ru/big/2020/0516/17/f97848443f22a39a3ddcb6d80014cc17.jpg Скачать фильм Драйв через торрент бесплантно в хорошем качестве Описание:Главному герою фильма Антону, каскадёру и фанату быстрой езды, поставлен смертельный диагноз. Однако он не отчаивается и ... 10 10 6
Торрент: Зарегистрирован [2020-05-17 14:37] · скачан: 110 раз
Статус: √ проверено
Размер: 4.46 GB
Как cкачать? Как скачать Драйв через торрент | qTorrent

% Раздел Тема Автор DL S | L
Наши сериалы [ 5.31 GB ] Драйв / Серии: 1-8 из 8 [2018 WEBRip 1080p] killermax2013 Скачать
1 | 0
Наши сериалы [ 4.76 GB ] Драйв / Серии: 1-8 из 8 [2018 WEBRip] killermax2013 Скачать
2 | 0

28-11-2019 20:33  

Отключить всю рекламу на сайте

18-05-2020 21:39 Драйв Скачать торрент  

Отличный сериал сильно выделяется на фоне других,это пока лучший из наших что я посмотрел в этом году.pb.wtf



    Дорогой пользователь! Огромная просьба, поблагодарите релизера, оцените раздачу и оставьте свои комментарий, если Вы скачали Драйв через торрент бесплатно! Внесите свою лепту в развитие PiratBit!
    Комментировать посты могут только пользователи прошедшие не сложную регистрацию
    Показать сообщения:    

    Драйв через торрент
    Скачать бесплатно Драйв
    Драйв скачать торрент
    Драйв смотреть онлайн
    Cкачать фильм Драйв бесплатно
    Драйв скачать торрент в хорошем качестве
    Драйв смотреть онлайн бесплатно в хорошем качестве


    Вы не можете начинать темы
    Вы не можете отвечать на сообщения
    Вы не можете редактировать свои сообщения
    Вы не можете удалять свои сообщения
    Вы не можете голосовать в опросах
    Вы не можете прикреплять файлы к сообщениям
    Вы можете скачивать файлы