Ссылка на приватное зеркало нашего сайта всего за 1$. Внимание количество ограничено!!!

2 сезон

iTunes

1 сезон

1

iTunes

iTunes

iTunes

1 сезон

RePack

30

ИГРА 18+

pack

ВАЖНО

!!Акция!!

Alien_RageХит недели

RePack

MK11
pack

Забери бонус

RePack

jed

!!Акция!!

Alien_Rage

RePack

fifa19

RePack

Assassins Creed: Odyssey

RePack

NEED FOR SPEED™ PAYBACK

4 сезон

9 сезон

Бесстыжие 9 сезон

Все сериалы

все сериалы на PB.wtf

RePack

FAR CRY 5
  

Идеальный пациент / Серии: 1-2 из 2 (Иван Криворучко) [2020, Мелодрама, SATRip] pb.wtf

Идеальный пациент через торрент pb.wtf

Размер: 2.38 GB | Добавлен: 5 мес. 11 д. назад | Торрент скачан:33 раза
Скачать  

17-05-2020 00:56 Идеальный пациент Скачать торрент  

Идеальный пациент
Год выпуска: 2020
Страна: Россия
Производство: Производство ООО «Кинокомпания Дерево», ООО «Атлантик Продакшн»
Жанр: Мелодрама
Продолжительность: ~ 01:30:00
Субтитры: отсутствуют

Режиссер: Иван Криворучко



В ролях: Дарья Румянцева, Евгений Шириков, Яков Шамшин, Екатерина Панасюк, Олег Алмазов, Кира Кауфман, Сергей Бызгу, Юрий Сташин, Татьяна Тихменёва, Вера Плешанова, Юрий Жаравин, Дмитрий Гудим, Таисия Котова, Анастасия Торшина, Светлана Волошина (III)

Описание: Медсестра Зоя знакомится в больнице с известным нейрохирургом Евгением. Он недавно попал в ужасную аварию, которая отняла у него всё, даже желание жить. В машину Евгения врезался пьяный водитель. Его жена погибла, дочку забрал к себе тесть и запрещает с ней видеться, а сам он прикован к инвалидному креслу. Работа была смыслом его жизни, но всё это в прошлом – больше он уже не может оперировать. Зоя становится его сиделкой. Она отчаянно пытается помочь ему. Стать другом, вернуть надежду и заставить бороться, чтобы совершиться невозможное – снова поставить себя на ноги. Зоя заботлива и терпелива. Но она не решается сказать Евгению всю правду…

Качество: SATRip
Формат: AVI

Видео: XviD, 720x400, ~ 1700 Кбит/с, 0.236 bit/pixel, 25 кадр/с
Аудио: МР3, 48,0 КГц, 2 ch, 192 Кбит/с
скриншот  скриншот  скриншот  скриншот  

Общее
Полное имя : D:\Идеальный.Пациент.XviD.2019.SATRip.7turza™\01.Идеальный.Пациент.7turza™.avi
Формат : AVI
Формат/Информация : Audio Video Interleave
Профиль формата : OpenDML
Размер файла : 1,19 Гбайт
Продолжительность : 1 ч. 29 м.
Общий поток : 1904 Кбит/сек
Название фильма : S01 E01 # from 7turza #
Программа кодирования : Lavf58.29.100

Видео
Идентификатор : 0
Формат : MPEG-4 Visual
Профиль формата : Advanced Simple@L5
Настройки формата : BVOP1
Параметр BVOP формата : 1
Параметр QPel формата : Нет
Параметр GMC формата : Без точки перехода
Параметр матрицы формата : Default (H.263)
Идентификатор кодека : XVID
Идентификатор кодека/Подсказка : XviD
Продолжительность : 1 ч. 29 м.
Битрейт : 1697 Кбит/сек
Ширина : 720 пикселей
Высота : 400 пикселей
Соотношение сторон : 16:9
Частота кадров : 25,000 кадров/сек
Цветовое пространство : YUV
Субдискретизация насыщенности : 4:2:0
Битовая глубина : 8 бит
Тип развёртки : Прогрессивная
Метод сжатия : С потерями
Бит/(Пиксели*Кадры) : 0.236
Размер потока : 1,06 Гбайт (89%)
Библиотека кодирования : XviD 67

Аудио
Идентификатор : 1
Формат : MPEG Audio
Версия формата : Version 1
Профиль формата : Layer 3
Настройки формата : Joint stereo
Идентификатор кодека : 55
Идентификатор кодека/Подсказка : MP3
Продолжительность : 1 ч. 29 м.
Вид битрейта : Постоянный
Битрейт : 192 Кбит/сек
Каналы : 2 канала
Частота : 48,0 КГц
Метод сжатия : С потерями
Размер потока : 123 Мбайт (10%)
Выравнивание : Соединение по промежуткам
Продолжительность промежутка : 24 мс. (0,60 видеокадр)
Библиотека кодирования : LAME3.100

pb.wtf



Скачать Идеальный пациент через торрент https://a.radikal.ru/a22/2005/28/6b937e77a175.jpg Скачать фильм Идеальный пациент через торрент бесплантно в хорошем качестве Описание: Медсестра Зоя знакомится в больнице с известным нейрохирургом Евгением. Он недавно попал в ужасную аварию, которая отняла у него ... 10 10 4
Торрент: Зарегистрирован [2020-05-17 00:56] · скачан: 33 раз
Статус: √ проверено
Размер: 2.38 GB
Как cкачать? Как скачать Идеальный пациент через торрент | qTorrent

% Раздел Тема Автор DL S | L
Наши сериалы [ 2.75 GB ] Идеальный пациент / Серии: 1-2 из 2 [2020 Мело HDTVRip-AVC] bober100 Скачать
2 | 0
Наши сериалы [ 2.26 GB ] Идеальный пациент / Серии: 1-2 из 2 [2020 Мело HDTVRip] bober100 Скачать
2 | 0
Наши сериалы [ 4.62 GB ] Идеальный пациент / Серии: 1-2 из 2 [2020 Мело HDTVRip 720p] bober100 Скачать
1 | 0
Наши сериалы [ 9.58 GB ] Идеальный пациент / Серии: 1-2 из 2 [2020 Мело HDTV 1080i] bober100 Скачать
1 | 0

28-11-2019 20:33  

Отключить всю рекламу на сайте

    Дорогой пользователь! Огромная просьба, поблагодарите релизера, оцените раздачу и оставьте свои комментарий, если Вы скачали Идеальный пациент через торрент бесплатно! Внесите свою лепту в развитие PiratBit!
    Комментировать посты могут только пользователи прошедшие не сложную регистрацию
    Показать сообщения:    

    Идеальный пациент через торрент
    Скачать бесплатно Идеальный пациент
    Идеальный пациент скачать торрент
    Идеальный пациент смотреть онлайн
    Cкачать фильм Идеальный пациент бесплатно
    Идеальный пациент скачать торрент в хорошем качестве
    Идеальный пациент смотреть онлайн бесплатно в хорошем качестве


    Вы не можете начинать темы
    Вы не можете отвечать на сообщения
    Вы не можете редактировать свои сообщения
    Вы не можете удалять свои сообщения
    Вы не можете голосовать в опросах
    Вы не можете прикреплять файлы к сообщениям
    Вы можете скачивать файлы