Ссылка на приватное зеркало всего за 1$. Внимание количество ограничено!!!

iTunes

iTunes

iTunes

1

iTunes

iTunes

iTunes

iTunes

iTunes

30
pack

$ от Little Big

ВАЖНО

!!Акция!!

Alien_RageХит недели

RePack

Resident Evil 21

ИГРА 18+

pack

RePack

jed

!!Акция!!

Alien_Rage

RePack

fifa19

RePack

Assassins Creed: Odyssey

RePack

NEED FOR SPEED™ PAYBACK

4 сезон

9 сезон

Бесстыжие 9 сезон

Все сериалы

все сериалы на PB.wtf

RePack

FAR CRY 5
  

UFC Fight Night 172: Overeem vs. Harris / Prelims & Main Card [17.05.2020, MMA, RU, UFC ТВ HD, IPTVRip 1080p] pb.wtf

UFC Fight Night 172: Overeem vs. Harris через торрент pb.wtf

Раздают: 1 [ 0 KB/s ]
Размер: 8.72 GB | Добавлен: 18 д. назад | Торрент скачан:33 раза
Скачать  

17-05-2020 07:32 UFC Fight Night 172: Overeem vs. Harris Скачать торрент  

UFC Fight Night 172: Overeem vs. Harris / Prelims & Main Card
Год выпуска: 17.05.2020
Вид спорта: MMA
Продолжительность: 04:54:07
Язык комментариев: Русский
Комментаторы: Олег Володин, Давид Багдасарян
Выпущено: Россия, UFC ТВ

Описание: 17 мая в Jacksonville Veterans Memorial Arena, штат Флорида, прошел турнир UFC Fight Night 172, главным событием которого стал бой в тяжелом весе между Алистаром Оверимом - Уолтом Харрисом. Первоначально данный бой планировался провести в декабре прошлого года. Однако, Харрис отказался от участия в начале ноября, сославшись на исчезновение и смерть своей падчерицы в ее родном штате Алабама. Вторая попытка организации данного мейн-ивента состоялось 12 апреля, но из-за всемирной пандемии бой был перенесен на 17 мая.

Автор релиза:
Реклама: Отсутствует

Качество: IPTVRip 1080p
Формат: TS

Видео: MPEG-4 AVC, 1920x1080, ~ 4055 Кбит/с, 25.000 FPS
Аудио: AAC, 2 ch, 192 Кбит/с, 48.0 kHz
Предварительный кард:

Полулегкий вес: Даррен Элкинс – Нэйт Ландвер
Полулегкий вес: Ирвин Ривер – Гига Чикадзе
Средний вес: Энтони Эрнандес – Кевин Холланд
Средний вес: Мэтт Браун – Мигель Баеза

Основной кард:

Полулегкий вес: Ядон Сон – Марлон Вера
Средний вес: Эрик Андерс – Кшиштоф Йотко
Полулегкий вес: Эдсон Барбоза – Дэн Иге
Женщины, первый наилегчайший вес: Клаудия Гаделья – Анджела Хилл
Тяжелый вес: Алистер Оверим – Уолт Харрис
Общее
Уникальный идентификатор : 59766594885471607092927405692234612396 (0x2CF6A0A24B150E0BD865F53104A1BEAC)
Полное имя : D:\UFC.Fight.Night.172.(17.05.2020).(1080).7turza™\01.UFC.Fight.Night.172.Предварительный.Кард.7turza™.mkv
Формат : Matroska
Версия формата : Version 4
Размер файла : 3,15 Гбайт
Продолжительность : 1 ч. 46 м.
Режим общего битрейта : Переменный
Общий поток : 4244 Кбит/сек
Название фильма : # from 7turza #
Дата кодирования : UTC 2020-05-17 03:51:04
Программа кодирования : mkvmerge v46.0.0 ('No Deeper Escape') 64-bit
Библиотека кодирования : libebml v1.3.10 + libmatroska v1.5.2
Attachments : poster.jpg

Видео
Идентификатор : 1
Формат : AVC
Формат/Информация : Advanced Video Codec
Профиль формата : High@L4
Настройки формата : CABAC / 4 Ref Frames
Параметр CABAC формата : Да
Параметр RefFrames формата : 4 кадра
Идентификатор кодека : V_MPEG4/ISO/AVC
Продолжительность : 1 ч. 46 м.
Вид битрейта : Переменный
Битрейт : 4052 Кбит/сек
Максимальный битрейт : 4500 Кбит/сек
Ширина : 1920 пикселей
Высота : 1080 пикселей
Соотношение сторон : 16:9
Режим частоты кадров : Постоянный
Частота кадров : 25,000 кадров/сек
Цветовое пространство : YUV
Субдискретизация насыщенности : 4:2:0
Битовая глубина : 8 бит
Тип развёртки : Прогрессивная
Бит/(Пиксели*Кадры) : 0.078
Размер потока : 3,01 Гбайт (95%)
Default : Да
Forced : Нет

Аудио
Идентификатор : 2
Формат : AAC LC
Формат/Информация : Advanced Audio Codec Low Complexity
Идентификатор кодека : A_AAC-2
Продолжительность : 1 ч. 46 м.
Битрейт : 192 Кбит/сек
Каналы : 2 канала
ChannelLayout : L R
Частота : 48,0 КГц
Частота кадров : 46,875 кадров/сек (1024 SPF)
Метод сжатия : С потерями
Размер потока : 144 Мбайт (4%)
Default : Да
Forced : Нет
скриншот  скриншот  скриншот  скриншот  
pb.wtf



Скачать UFC Fight Night 172: Overeem vs. Harris через торрент https://b.radikal.ru/b14/2005/ba/f121644aa3b7.jpg Скачать фильм UFC Fight Night 172: Overeem vs. Harris через торрент бесплантно в хорошем качестве Описание: 17 мая в Jacksonville Veterans Memorial Arena, штат Флорида, прошел турнир UFC Fight Night 172, главным событием которого стал ... 10 10 4
Торрент: Зарегистрирован [2020-05-17 07:32] · скачан: 33 раз
Статус: √ проверено
Размер: 8.72 GB
Как cкачать? Как скачать UFC Fight Night 172: Overeem vs. Harris через торрент | qTorrent

28-11-2019 20:33  

Отключить всю рекламу на сайте

    Дорогой пользователь! Огромная просьба, поблагодарите релизера, оцените раздачу и оставьте свои комментарий, если Вы скачали UFC Fight Night 172: Overeem vs. Harris через торрент бесплатно! Внесите свою лепту в развитие PiratBit!
    Комментировать посты могут только пользователи прошедшие не сложную регистрацию
    Показать сообщения:    

    UFC Fight Night 172: Overeem vs. Harris через торрент
    Скачать бесплатно UFC Fight Night 172: Overeem vs. Harris
    UFC Fight Night 172: Overeem vs. Harris скачать торрент
    UFC Fight Night 172: Overeem vs. Harris смотреть онлайн
    Cкачать фильм UFC Fight Night 172: Overeem vs. Harris бесплатно
    UFC Fight Night 172: Overeem vs. Harris скачать торрент в хорошем качестве
    UFC Fight Night 172: Overeem vs. Harris смотреть онлайн бесплатно в хорошем качестве


    Вы не можете начинать темы
    Вы не можете отвечать на сообщения
    Вы не можете редактировать свои сообщения
    Вы не можете удалять свои сообщения
    Вы не можете голосовать в опросах
    Вы не можете прикреплять файлы к сообщениям
    Вы можете скачивать файлы