Всегда рабочее зеркало без VPN и Proxy просто перед .vidak.icu напиши любое слово или цифру, Пример http://qbhr.vidak.icu

MVO

Лицензия

1 сезон

1

1 сезон

iTunes

1 сезон

13

1 сезон

Deluxe

pack

Рекомендуем

Repack

30

ВАЖНО

RePack

MK11

RePack

jed

RePack

fifa19

RePack

RDR2

RePack

NEED FOR SPEED™ PAYBACK

Кинопоиск HD

6 сезон

 Острые козырьки 6 сезон

Все сериалы

все сериалы на PB.wtf

RePack

FAR CRY 5
  
Magnet ссылка

Рэмбо: Последняя кровь / Rambo: Last Blood (Адриан Грюнберг) [2019, Боевик, триллер, приключения, BDRemux, (Расширенная версия)] DUB [iTunes]+AVO [Чадов] - ExKinoRay pb.wtf

Рэмбо: Последняя кровь через торрент pb.wtf

Размер: 15.6 GB | Добавлен: 2 года 1 мес. назад | Торрент скачан:40 раз
Смотреть онлайн Рэмбо: Последняя кровь | Скачать    Ребята, помогите собрать деньги на оплату серверов!!!

17-05-2020 11:47 Рэмбо: Последняя кровь Скачать торрент  

Рэмбо: Последняя кровь / Rambo: Last Blood
Год выпуска: 2019
Страна: США, Испания, Болгария / Balboa Productions, Campbell Grobman Films, Dadi Film Group
Жанр: Боевик, триллер, приключения
Продолжительность: 01:40:30
Перевод: Дублированный [iTunes]
Перевод: Авторский [М. Чадов]
Субтитры: Русские (Full [Enigma]), английские

Режиссер: Адриан Грюнберг

rating

В ролях: Сильвестр Сталлоне, Пас Вега, Ивет Монреаль, Луис Мэндилор, Оскар Хаенада, Шила Шах, Серхио Перис-Менчета, Джессика Мэдсен, Хоакин Косио, Адриана Барраса

Описание: Он хранил секреты всю жизнь, но пришло время взглянуть в глаза прошлому. В последний раз собраться и стать безжалостной машиной для убийства. Рэмбо снова встанет на смертельно опасный путь — путь мести, который ему придется пройти до конца.

Перевод М.Чадова доступен благодаря: maxxsss, kostasmen, saint-sinner, mv73, kinomexanik, zav25, kidman644, napaHouk, PATAMAXATATA, ivan_aka_flint, garik123, podorov92, van156, mark, Himik968, Avatar-Lion. Работа со звуком Переводман.

Качество: BD Remux
Формат: MKV
Видео кодек: H.264
Аудио кодек: AC3
Видео: MPEG-4 AVC, 19.2 Мбит/с, 1920x1080
Аудио#1: Русский (AC3, 6 ch, 384 Кбит/с) Dub (iTunes)
Аудио#2: Русский (AC3, 6 ch, 640 Кбит/с) AVO (М. Чадов)
Аудио#3: Английский (DTS-HD MA, 8 ch, 1999 Кбит/с) Original

Релиз от:
Общее
Уникальный идентификатор : 232556511011441999082015435227595864118 (0xAEF4C13CAA1784B3814BC9BB6B48F836)
Полное имя : D:\Раздача\Rembo.2019.Extended.BDRemux.1080p.ExKinoRay.mkv
Формат : Matroska
Версия формата : Version 4 / Version 2
Размер файла : 15,6 Гбайт
Продолжительность : 1 ч. 40 м.
Режим общего битрейта : Переменный
Общий поток : 22,2 Мбит/сек
Название фильма : Rambo: Last Blood 2019 BDRemux.1080p.grab777 & ExKinoRay
Дата кодирования : UTC 2020-05-17 10:24:29
Программа кодирования : mkvmerge v7.3.0 ('Nouages') 64bit built on Oct 22 2014 18:53:34
Библиотека кодирования : libebml v1.3.0 + libmatroska v1.4.1

Видео
Идентификатор : 1
Формат : AVC
Формат/Информация : Advanced Video Codec
Профиль формата : [email protected]
Настройки формата : CABAC / 4 Ref Frames
Параметр CABAC формата : Да
Параметр RefFrames формата : 4 кадра
Параметр GOP формата : M=3, N=24
Идентификатор кодека : V_MPEG4/ISO/AVC
Продолжительность : 1 ч. 40 м.
Вид битрейта : Переменный
Битрейт : 19,2 Мбит/сек
Максимальный битрейт : 35,0 Мбит/сек
Ширина : 1920 пикселей
Высота : 1080 пикселей
Соотношение сторон : 16:9
Режим частоты кадров : Постоянный
Частота кадров : 23,976 (24000/1001) кадра/сек
Стандарт вещания : NTSC
Цветовое пространство : YUV
Субдискретизация насыщенности : 4:2:0
Битовая глубина : 8 бит
Тип развёртки : Прогрессивная
Бит/(Пиксели*Кадры) : 0.386
Размер потока : 13,5 Гбайт (86%)
Заголовок : Sborka: grab777
Язык : English
Default : Да
Forced : Нет
Цветовой диапазон : Limited
Основные цвета : BT.709
Характеристики трансфера : BT.709
Коэффициенты матрицы : BT.709

Аудио #1
Идентификатор : 2
Формат : AC-3
Формат/Информация : Audio Coding 3
Параметр Endianness формата : Big
Идентификатор кодека : A_AC3
Продолжительность : 1 ч. 40 м.
Вид битрейта : Постоянный
Битрейт : 384 Кбит/сек
Каналы : 6 каналов
Расположение каналов : Front: L C R, Side: L R, LFE
Частота : 48,0 КГц
Частота кадров : 31,250 кадров/сек (1536 SPF)
Битовая глубина : 16 бит
Метод сжатия : С потерями
Размер потока : 276 Мбайт (2%)
Заголовок : Dub (iTunes)
Язык : Russian
ServiceKind/String : Complete Main
Default : Да
Forced : Да

Аудио #2
Идентификатор : 3
Формат : AC-3
Формат/Информация : Audio Coding 3
Параметр Endianness формата : Big
Идентификатор кодека : A_AC3
Продолжительность : 1 ч. 40 м.
Вид битрейта : Постоянный
Битрейт : 640 Кбит/сек
Каналы : 6 каналов
Расположение каналов : Front: L C R, Side: L R, LFE
Частота : 48,0 КГц
Частота кадров : 31,250 кадров/сек (1536 SPF)
Битовая глубина : 16 бит
Метод сжатия : С потерями
Размер потока : 460 Мбайт (3%)
Заголовок : AVO (Chadov)
Язык : Russian
ServiceKind/String : Complete Main
Default : Нет
Forced : Нет

Аудио #3
Идентификатор : 4
Формат : DTS
Формат/Информация : Digital Theater Systems
Профиль формата : MA / Core
Режим : 16
Параметр Endianness формата : Big
Идентификатор кодека : A_DTS
Продолжительность : 1 ч. 40 м.
Вид битрейта : Переменный / Постоянный
Битрейт : 1999 Кбит/сек / 1509 Кбит/сек
Каналы : 6 каналов
Расположение каналов : Front: L C R, Side: L R, LFE
Частота : 48,0 КГц
Частота кадров : 93,750 кадра/сек (512 SPF)
Битовая глубина : 16 бит
Метод сжатия : Без потерь / Lossy
Размер потока : 1,40 Гбайт (9%)
Заголовок : Original
Язык : English
Default : Нет
Forced : Нет

Текст #1
Идентификатор : 5
Формат : UTF-8
Идентификатор кодека : S_TEXT/UTF8
Идентификатор кодека/Информация : UTF-8 Plain Text
Продолжительность : 1 ч. 33 м.
Битрейт : 58 бит/сек
ElementCount : 809
Размер потока : 40,0 Кбайт (0%)
Заголовок : Full (Enigma)
Язык : Russian
Default : Нет
Forced : Нет

Текст #2
Идентификатор : 6
Формат : UTF-8
Идентификатор кодека : S_TEXT/UTF8
Идентификатор кодека/Информация : UTF-8 Plain Text
Продолжительность : 1 ч. 29 м.
Битрейт : 27 бит/сек
ElementCount : 629
Размер потока : 17,9 Кбайт (0%)
Заголовок : Full
Язык : English
Default : Нет
Forced : Нет

Меню
00:00:00.000 : en:Глава 01
00:08:00.063 : en:Глава 02
00:18:19.265 : en:Глава 03
00:29:01.031 : en:Глава 04
00:38:06.242 : en:Глава 05
00:44:42.513 : en:Глава 06
00:51:34.800 : en:Глава 07
00:59:39.326 : en:Глава 08
01:07:53.152 : en:Глава 09
01:14:41.060 : en:Глава 10
01:21:38.852 : en:Глава 11
01:29:51.344 : en:Глава 12

pb.wtf



Скачать Рэмбо: Последняя кровь через торрент https://pic1.kartinco.top/images/12/cv7y3.jpg Скачать, смотреть онлайн Рэмбо: Последняя кровь бесплантно в хорошем качестве Описание: Он хранил секреты всю жизнь, но пришло время взглянуть в глаза прошлому. В последний раз собраться и стать безжалостной машиной ... 9.2 10 5
Info! Золотая раздача, скачанное не засчитывается.
Торрент: Зарегистрирован [2020-05-17 11:47] · скачан: 40 раз
Статус: √ проверено
Размер: 15.6 GB
Как cкачать? Как скачать Рэмбо: Последняя кровь через торрент | UTorrent

% Раздел Тема Автор DL S | L
Фильмы 2019-2020 [DVDrip, WEB-DLRip, HDrip] (DUB, MVO) [ 1.4 GB ] Рэмбо: Последняя кровь / Rambo: Last Blood [2019 HDRip-AVC] | Расширенная версия / Extended Cut - ExKinoRay Enigma2010 Скачать
1 | 0

28-11-2019 20:33  

Отключить всю рекламу на сайте

    Дорогой пользователь! Огромная просьба, поблагодарите релизера, оцените раздачу и оставьте свои комментарий, если Вы скачали Рэмбо: Последняя кровь через торрент бесплатно!
    Комментировать посты могут только пользователи прошедшие не сложную регистрацию
    Показать сообщения:    

    Рэмбо: Последняя кровь через торрент
    Скачать бесплатно Рэмбо: Последняя кровь
    Рэмбо: Последняя кровь скачать торрент
    Рэмбо: Последняя кровь смотреть онлайн
    Cкачать фильм Рэмбо: Последняя кровь бесплатно
    Рэмбо: Последняя кровь скачать торрент в хорошем качестве
    Рэмбо: Последняя кровь смотреть онлайн бесплатно в хорошем качестве


    Вы не можете начинать темы
    Вы не можете отвечать на сообщения
    Вы не можете редактировать свои сообщения
    Вы не можете удалять свои сообщения
    Вы не можете голосовать в опросах
    Вы не можете прикреплять файлы к сообщениям
    Вы можете скачивать файлы