Marvel's Avengers Deluxe Edition (супер цена) 159р. Внимание количество ограничено!!!

2 сезон

iTunes

iTunes

1

iTunes

iTunes

iTunes

WEBRip

iTunes

30
pack

Новость дня

ВАЖНО

!!Акция!!

Alien_RageХит недели

RePack

Horizon Zero Dawn

ИГРА 18+

pack

RePack

jed

!!Акция!!

Alien_Rage

RePack

fifa19

RePack

Assassins Creed: Odyssey

RePack

NEED FOR SPEED™ PAYBACK

4 сезон

9 сезон

Бесстыжие 9 сезон

Все сериалы

все сериалы на PB.wtf

RePack

FAR CRY 5
  

Noize MC - Концерт на платформе МТС Live [2020, Концерт, QHD WEBRip 1440р] pb.wtf

Noize MC - Концерт на платформе МТС Live через торрент pb.wtf

Размер: 7.48 GB | Добавлен: 4 мес. 2 д. назад | Торрент скачан:7 раз
Скачать  

17-05-2020 13:33 Noize MC - Концерт на платформе МТС Live Скачать торрент  

Noize MC - Концерт на платформе МТС Live
Год выпуска: 2020
Страна: Россия
Жанр: Концерт
Продолжительность: 01:44:47
Перевод: Не требуется
Субтитры: отсутствуют

Ведущий: Александр Анатольевич
В ролях: Noize MC

Описание: Онлайн-концерт российского исполнителя Noize MC, который состоялся 14 мая 2020 года на площадке МТС Live.
"Я спою 12 песен в формате #noizemcбезоркестра и отвечу на ваши вопросы", - рассказал музыкант. Музыка Noize MC совмещает в себе черты нескольких жанров и стилей. В своих треках музыкант объединяет речитатив с рок-композициями. С 2011 года он старается отделить рэп от рока в своём творчестве

Качество: QHD WEBRip 1440р (2K)
Формат: MKV

Видео: AVC/H.264, 2560x1440, ~10.0 Mbps, 25.00 fps
Аудио: AAC, 48.0 kHz, 2 ch, 192 kbps
скриншот  скриншот  скриншот  скриншот  

General
Unique ID: 90459688418874820669320929750927262506 (0x440DE6FB12F0E5CD9AAED0067CB3C32A)
Complete name: D:\Noize_MC_МТС_Live_14_05_2020_1440p.mkv
Format: Matroska
Format version: Version 4
File size: 7.48 GiB
Duration: 1 h 44 min
Overall bit rate: 10.2 Mb/s
Encoded date: UTC 2020-05-15 04:50:30
Writing application: mkvmerge v44.0.0 ('Domino') 64-bit
Writing library: libebml v1.3.10 + libmatroska v1.5.2

Video
ID: 1
Format: AVC
Format/Info: Advanced Video Codec
Format profile: High@L5
Format settings: CABAC / 1 Ref Frames
Format settings, CABAC: Yes
Format settings, ReFrames: 1 frame
Format settings, GOP: M=1, N=30
Codec ID: V_MPEG4/ISO/AVC
Duration: 1 h 44 min
Bit rate: 9 997 kb/s
Width: 2 560 pixels
Height: 1 440 pixels
Display aspect ratio: 16:9
Frame rate mode: Variable
Frame rate: 24.847 FPS
Original frame rate: 25.000 FPS
Color space: YUV
Chroma subsampling: 4:2:0
Bit depth: 8 bits
Scan type: Progressive
Bits/(Pixel*Frame): 0.109
Stream size: 7.30 GiB (98%)
Default: Yes
Forced: No

Audio
ID: 2
Format: AAC LC
Format/Info: Advanced Audio Codec Low Complexity
Codec ID: A_AAC-2
Duration: 1 h 44 min
Bit rate: 256 kb/s
Channel(s): 2 channels
Channel layout: L R
Sampling rate: 48.0 kHz
Frame rate: 46.875 FPS (1024 SPF)
Compression mode: Lossy
Delay relative to video: 18 ms
Stream size: 189 MiB (2%)
Default: Yes
Forced: No

pb.wtf



Скачать Noize MC - Концерт на платформе МТС Live через торрент http://d.radikal.ru/d28/2005/62/23791d26214b.jpg Скачать фильм Noize MC - Концерт на платформе МТС Live [2020, Концерт, QHD WEBRip 1440р]через торрент бесплантно в хорошем качестве Описание: Онлайн-концерт российского исполнителя Noize MC, который состоялся 14 мая 2020 года на площадке МТС Live."Я спою 12 песен в ... 9.8 10 4
Торрент: Зарегистрирован [2020-05-17 13:33] · скачан: 7 раз
Статус: √ проверено
Размер: 7.48 GB
Как cкачать? Как скачать Noize MC - Концерт на платформе МТС Live через торрент | qTorrent

% Раздел Тема Автор DL S | L
Концерты [ 4.01 GB ] Noize MC - Концерт на платформе МТС Live [2020 Концерт WEBRip 1080p] bober100 Скачать
2 | 0

28-11-2019 20:33  

Отключить всю рекламу на сайте

    Дорогой пользователь! Огромная просьба, поблагодарите релизера, оцените раздачу и оставьте свои комментарий, если Вы скачали Noize MC - Концерт на платформе МТС Live через торрент бесплатно! Внесите свою лепту в развитие PiratBit!
    Комментировать посты могут только пользователи прошедшие не сложную регистрацию
    Показать сообщения:    

    Noize MC - Концерт на платформе МТС Live через торрент
    Скачать бесплатно Noize MC - Концерт на платформе МТС Live
    Noize MC - Концерт на платформе МТС Live скачать торрент
    Noize MC - Концерт на платформе МТС Live смотреть онлайн
    Cкачать фильм Noize MC - Концерт на платформе МТС Live бесплатно
    Noize MC - Концерт на платформе МТС Live скачать торрент в хорошем качестве
    Noize MC - Концерт на платформе МТС Live смотреть онлайн бесплатно в хорошем качестве


    Вы не можете начинать темы
    Вы не можете отвечать на сообщения
    Вы не можете редактировать свои сообщения
    Вы не можете удалять свои сообщения
    Вы не можете голосовать в опросах
    Вы не можете прикреплять файлы к сообщениям
    Вы можете скачивать файлы