2 сезон

iTunes

1 сезон

1

iTunes

iTunes

iTunes

1 сезон

RePack

30

ИГРА 18+

pack

ВАЖНО

!!Акция!!

Alien_RageХит недели

RePack

MK11
pack

Забери бонус

RePack

jed

!!Акция!!

Alien_Rage

RePack

fifa19

RePack

Assassins Creed: Odyssey

RePack

NEED FOR SPEED™ PAYBACK

4 сезон

9 сезон

Бесстыжие 9 сезон

Все сериалы

все сериалы на PB.wtf

RePack

FAR CRY 5
  

Золушка / Cinderella (Ричард Слапчински) [1996 г., мультфильм, сказка, семейный, DVDRip-AVC] MVO pb.wtf

Золушка через торрент pb.wtf

Раздают: 1 [ 0 KB/s ]
Размер: 747 MB | Добавлен: 5 мес. 14 д. назад | Торрент скачан:6 раз
Скачать  

17-05-2020 17:44 Золушка Скачать торрент  

Золушка | Cinderella

Год выпуска: 1996
Страна: Австралия | Burbank Animation Studios
Жанр: мультфильм, сказка, семейный
Продолжительность: 00:49:53
Перевод: Профессиональный (многоголосый закадровый) + английский (отдельно)
Субтитры: нет

Режиссер: Ричард Слапчински

В ролях: Кэрол Адамс, Клэр Краузер, Робби МакГрегор, Ник МакКэй, Паула Морелл, Сэлли Пейшнс, Ли Перри, Bill Specha

Описание: Жил да был в одном сказочном королевстве дровосек с дочкой. Жили они, не тужили, пока не вздумалось дровосеку жениться. Взял он в жены вдову с двумя детьми - женщину добропорядочную, видную. Только был у нее один большой недостаток - скверный характер. И сколько дровосек ни старался, никак не мог угодить сварливой жене. На дочку злая мачеха взвалила всю черную работу по дому. Днем и ночью бедная девушка варила, стирала, чистила, подметала, мыла. А за то, что руки ее всегда были в печной золе, злые сестры прозвали ее Золушкой. Вскоре дровосек заболел и умер. И быть бы Золушке всю жизнь в прислугах у мачехи и сестер, если бы к ней на помощь не пришла крестная, которая была не кем-нибудь, а самой настоящей волшебницей...

rating
Рейтинг 0+ - для любой зрительской аудитории

Файл
Формат: MKV
Качество: DVDRip-AVC (DVD5)
Видео: MPEG-4 AVC, 718->764x572 (4:3), 25.000 fps, 1865 kbps, 0.182 bit/pixel
Аудио #1: Русский, AC3, 2 chnls, 224 kbps | MVO
Аудио #2: Английский, AC3, 2 chnls, 224 kbps | Отдельно
x264 [info]: frame I:543 Avg QP:14.64 size: 71508
x264 [info]: frame P:18270 Avg QP:17.07 size: 23920
x264 [info]: frame B:56021 Avg QP:20.39 size: 3965
x264 [info]: consecutive B-frames: 2.7% 4.0% 14.9% 25.2% 24.9% 16.0% 5.0% 2.8% 2.2% 1.3% 0.5% 0.2% 0.1% 0.0% 0.0% 0.1% 0.0%
Format : Matroska
Format version : Version 4
File size : 747 MiB
Duration : 49 min 53 s
Overall bit rate : 2 092 kb/s
Movie name : Cinderella (1996) - Rip by -{am}-
Encoded date : UTC 2020-05-17 10:40:29
Writing application : mkvmerge v7.2.0 ('On Every Street') 32bit built on Sep 13 2014 15:42:11
Writing library : libebml v1.3.0 + libmatroska v1.4.1
Attachments : poster.png

Video
ID : 1
Format : AVC
Format/Info : Advanced Video Codec
Format profile : High@L4.1
Format settings : CABAC / 16 Ref Frames
Format settings, CABAC : Yes
Format settings, Reference : 16 frames
Codec ID : V_MPEG4/ISO/AVC
Duration : 49 min 53 s
Bit rate : 1 865 kb/s
Width : 718 pixels
Height : 572 pixels
Display aspect ratio : 4:3
Original display aspect rat : 4:3
Frame rate mode : Constant
Frame rate : 25.000 FPS
Color space : YUV
Chroma subsampling : 4:2:0
Bit depth : 8 bits
Scan type : Progressive
Bits/(Pixel*Frame) : 0.182
Stream size : 666 MiB (89%)
Title : Cinderella.1996.{am}.764.Rus
Writing library : x264 core 160 r3000+53 e3e4c3e t_mod_New [(8 & 10)-bit@all X86_64]
Encoding settings : cabac=1 / ref=16 / deblock=1:-1:0 / analyse=0x3:0x113 / me=umh / subme=11 / psy=1 / fade_compensate=0.00 / psy_rd=0.40:0.00 / mixed_ref=1 / me_range=64 / chroma_me=1 / trellis=2 / 8x8dct=1 / cqm=2 / deadzone=21,11 / fast_pskip=0 / chroma_qp_offset=-2 / threads=18 / lookahead_threads=4 / sliced_threads=0 / nr=0 / decimate=0 / interlaced=0 / bluray_compat=0 / constrained_intra=0 / fgo=0 / bframes=16 / b_pyramid=2 / b_adapt=2 / b_bias=0 / direct=3 / weightb=1 / open_gop=0 / weightp=2 / keyint=250 / keyint_min=25 / scenecut=40 / intra_refresh=0 / rc_lookahead=40 / rc=crf / mbtree=0 / crf=16.0000 / qcomp=0.70 / qpmin=0:0:0 / qpmax=69:69:69 / qpstep=4 / vbv_maxrate=50000 / vbv_bufsize=62500 / crf_max=30.0 / nal_hrd=none / filler=0 / ip_ratio=1.40 / pb_ratio=1.30 / aq=1:0.60 / aq-sensitivity=10.00 / aq-factor=1.00:1.00:1.00 / aq2=0 / aq3=0
Language : English
Default : Yes
Forced : No

Audio
ID : 2
Format : AC-3
Format/Info : Audio Coding 3
Commercial name : Dolby Digital
Codec ID : A_AC3
Duration : 49 min 53 s
Bit rate mode : Constant
Bit rate : 224 kb/s
Channel(s) : 2 channels
Channel layout : L R
Sampling rate : 48.0 kHz
Frame rate : 31.250 FPS (1536 SPF)
Compression mode : Lossy
Stream size : 79.9 MiB (11%)
Title : MVO
Language : Russian
Service kind : Complete Main
Default : Yes
Forced : No

Menu
00:00:00.000 : :Глава 1
00:03:56.520 : :Глава 2
00:08:12.159 : :Глава 3
00:12:33.720 : :Глава 4
00:16:50.120 : :Глава 5
00:20:33.920 : :Глава 6
00:25:28.680 : :Глава 7
00:29:45.600 : :Глава 8
00:35:06.560 : :Глава 9
00:39:23.200 : :Глава 10
00:43:43.760 : :Глава 11
00:48:09.600 : :Глава 12
скриншот  скриншот  скриншот  скриншот  

скриншот  скриншот  скриншот  скриншот  

скриншот  скриншот  скриншот  скриншот  

скриншот  скриншот  скриншот  скриншот  
pb.wtf



Скачать Золушка через торрент https://img11.lostpic.net/2020/05/17/f11833519843aec25d8df45f8e440677.th.png Скачать фильм Золушка через торрент бесплантно в хорошем качестве Описание: Жил да был в одном сказочном королевстве дровосек с дочкой. Жили они, не тужили, пока не вздумалось дровосеку жениться. Взял он в ... 5 10 1
Info! Золотая раздача, скачанное не засчитывается.
Торрент: Зарегистрирован [2020-05-17 17:44] · скачан: 6 раз
Статус: √ проверено
Размер: 747 MB
Как cкачать? Как скачать Золушка через торрент | qTorrent

% Раздел Тема Автор DL S | L
T Фильмы 2018 [DVDrip, WEB-DLRip, HDrip] (DUB, MVO) [ 1.91 GB ] Совсем не Золушка / Not Cinderella's Type [2018 Мело WEB-DLRip-AVC] [MVO] от MediaBit Lithuania Скачать
2 | 0
T Иностранные мультфильмы [ 1.45 GB ] Золушка и тайный принц / Cinderella and Secret Prince [2019 Мультфильм WEB-DLRip] MVO [HDRezka Studio] - ExKinoRay Enigma2010 Скачать
58 | 1
Зарубежные сериалы [ 3.24 GB ] Золушка '80 / Cinderella '80 / Серии: 1-4 [1984 музыкальный фильм DVDRip] MVO СВ-кадр lug30 Скачать
1 | 0

28-11-2019 20:33  

Отключить всю рекламу на сайте

    Дорогой пользователь! Огромная просьба, поблагодарите релизера, оцените раздачу и оставьте свои комментарий, если Вы скачали Золушка через торрент бесплатно! Внесите свою лепту в развитие PiratBit!
    Комментировать посты могут только пользователи прошедшие не сложную регистрацию
    Показать сообщения:    

    Золушка через торрент
    Скачать бесплатно Золушка
    Золушка скачать торрент
    Золушка смотреть онлайн
    Cкачать фильм Золушка бесплатно
    Золушка скачать торрент в хорошем качестве
    Золушка смотреть онлайн бесплатно в хорошем качестве


    Вы не можете начинать темы
    Вы не можете отвечать на сообщения
    Вы не можете редактировать свои сообщения
    Вы не можете удалять свои сообщения
    Вы не можете голосовать в опросах
    Вы не можете прикреплять файлы к сообщениям
    Вы можете скачивать файлы