2 сезон

iTunes

MVO

1

2 сезон

iTunes

iTunes

1 сезон

RePack

30

Ultimate

ВАЖНО

ИГРА 18+

pack

RePack

MK11
pack

Легкие деньги

RePack

jed

RePack

fifa19

RePack

RDR2

RePack

NEED FOR SPEED™ PAYBACK

4 сезон

9 сезон

Бесстыжие 9 сезон

Все сериалы

все сериалы на PB.wtf

RePack

FAR CRY 5

Anonymous, добрый вечер, мы не успеваем собрать деньги на оплату серверов за декабрь и январь, помогите нам пожалуйста в это трудное время. В качестве благодарности мы отключим Вам всю рекламу на сайте (укажите свой ник в строку Ваше имя)!

×
  
Magnet ссылка

Безумцы / Бесстрашные / Делилер / Deliler (Осман Кая) [2018, История, военный, BDRip-AVC] MVO [iTunes] pb.wtf

Безумцы через торрент pb.wtf

Раздают: 1 [ 0 KB/s ]
Размер: 2.83 GB | Добавлен: 8 мес. назад | Торрент скачан:80 раз
Скачать  

17-05-2020 18:59 Безумцы Скачать торрент  

Безумцы | Бесстрашные | Делилер | Deliler
Год выпуска: 2018
Страна: Турция
Жанр: История, военный
Продолжительность: 02:00:30
Перевод: Профессиональный многоголосый | iTunes
Субтитры: Турецкме (Forced), английские (Full)

Режиссер: Осман Кая

rating

В ролях: Джем Учан, Эркан Петеккая, Нур Феттахоглу, Йеткин Дикинджилер, Гюльшах Шахин, Исмаил Филиз, Берат Эфэ Парлар, Камиль Гюлер

Описание: Действия фильма разворачиваются в середине 15 века. Султан Фатих Мехмет направляет Влада Цепеша в Валахию, хотя вначале он оставался верен Османской Империи, затем проявляется его жестокость. Узнав об этом Султан Мехмет не желает умалчивать, он не намерен терпеть издевательства над людьми, какой бы нации или веры они ни были. Он отправляет к Владу своего посланника с предупреждением. Влад возвращает посла воткнув кол в голову. Рассвирепев Султан Фатих Мехмет создает "Союз безумцев", в который входят семь бесстрашных и доблестных героев, вместе с Куманом, который является ушами и глазами всего происходящего. Семь бесстрашных и доблестных героев; Гёккурт, Ашкар, Чеби, Сускун, Конгар и Адсыз. Вместо того, чтобы скрываться от войска Влада и самого Влада, эти семь безумцев пытаются отомстить тысячам обидчикам одним за другим. В конце этого пути находится Влад Тепеш и его армия.

Качество: BDRip-AVC
Формат: MKV

Видео: 1024x428 (2, 40:1), 23, 976 fps, MPEG-4 AVC ~ 2536 Kbps avg, 0.241 bit/pixel
Аудио#1: AC3, 48 kHz, 6 ch, ~384.00 kbps avg | русский | iTunes
Аудио#2: AC3, 48 kHz, 6 ch, ~448.00 kbps avg | турецкий | Оригинал
скриншот  скриншот  скриншот  скриншот  скриншот  

Общее
Уникальный идентификатор : 151482955267183197457167963994379298471 (0x71F68E537B637CC12FD39BDBDDACA6A7)
Полное имя : Deliler.2018.iT.BDRip.2.83Gb.x264.mkv
Формат : Matroska
Версия формата : Version 4
Размер файла : 2, 83 Гбайт
Продолжительность : 2 ч. 0 м.
Общий поток : 3367 Кбит/сек
Название фильма : Бесстрашные / Deliler (2018)
Дата кодирования : UTC 2020-05-17 17:59:05
Программа кодирования : mkvmerge v46.0.0 ('No Deeper Escape') 64-bit
Библиотека кодирования : libebml v1.3.10 + libmatroska v1.5.2
Обложка : Yes
Attachments : cover.jpg

Видео
Идентификатор : 1
Формат : AVC
Формат/Информация : Advanced Video Codec
Профиль формата : High@L4.1
Настройки формата : CABAC / 10 Ref Frames
Параметр CABAC формата : Да
Параметр RefFrames формата : 10 кадров
Идентификатор кодека : V_MPEG4/ISO/AVC
Продолжительность : 2 ч. 0 м.
Битрейт : 2536 Кбит/сек
Ширина : 1024 пикселя
Высота : 428 пикселей
Соотношение сторон : 2, 40:1
Режим частоты кадров : Постоянный
Частота кадров : 23, 976 (24000/1001) кадра/сек
Цветовое пространство : YUV
Субдискретизация насыщенности : 4:2:0
Битовая глубина : 8 бит
Тип развёртки : Прогрессивная
Бит/(Пиксели*Кадры) : 0.241
Размер потока : 2, 13 Гбайт (75%)
Заголовок : #stillet
Библиотека кодирования : x264 core 152 r2851bm ba24899
Настройки программы : cabac=1 / ref=10 / deblock=1:-3:-3 / analyse=0x3:0x113 / me=umh / subme=11 / psy=1 / psy_rd=1.00:0.15 / mixed_ref=1 / me_range=32 / chroma_me=1 / trellis=2 / 8x8dct=1 / cqm=0 / deadzone=21, 11 / fast_pskip=0 / chroma_qp_offset=-3 / threads=8 / lookahead_threads=3 / sliced_threads=0 / nr=0 / decimate=0 / interlaced=0 / bluray_compat=0 / constrained_intra=0 / bframes=10 / b_pyramid=2 / b_adapt=2 / b_bias=0 / direct=3 / weightb=1 / open_gop=0 / weightp=2 / keyint=240 / keyint_min=23 / scenecut=40 / intra_refresh=0 / rc=2pass / mbtree=0 / bitrate=2536 / ratetol=1.0 / qcomp=0.60 / qpmin=0 / qpmax=69 / qpstep=4 / cplxblur=20.0 / qblur=0.5 / ip_ratio=1.40 / pb_ratio=1.30 / aq=1:1.00
Язык : English
Default : Да
Forced : Нет

Аудио #1
Идентификатор : 2
Формат : AC-3
Формат/Информация : Audio Coding 3
Коммерческое название : Dolby Digital
Идентификатор кодека : A_AC3
Продолжительность : 2 ч. 0 м.
Вид битрейта : Постоянный
Битрейт : 384 Кбит/сек
Каналы : 6 каналов
ChannelLayout : L R C LFE Ls Rs
Частота : 48, 0 КГц
Частота кадров : 31, 250 кадров/сек (1536 SPF)
Метод сжатия : С потерями
Размер потока : 331 Мбайт (11%)
Заголовок : iTunes
Язык : Russian
Default : Да
Forced : Да

Аудио #2
Идентификатор : 3
Формат : AC-3
Формат/Информация : Audio Coding 3
Коммерческое название : Dolby Digital
Идентификатор кодека : A_AC3
Продолжительность : 2 ч. 0 м.
Вид битрейта : Постоянный
Битрейт : 448 Кбит/сек
Каналы : 6 каналов
ChannelLayout : L R C LFE Ls Rs
Частота : 48, 0 КГц
Частота кадров : 31, 250 кадров/сек (1536 SPF)
Метод сжатия : С потерями
Размер потока : 386 Мбайт (13%)
Заголовок : Original
Язык : Turkish
Default : Нет
Forced : Нет

Текст #1
Идентификатор : 4
Формат : UTF-8
Идентификатор кодека : S_TEXT/UTF8
Идентификатор кодека/Информация : UTF-8 Plain Text
Продолжительность : 41 м. 10 с.
Битрейт : 1 бит/сек
ElementCount : 4
Размер потока : 456 байт (0%)
Заголовок : Forced
Язык : Turkish
Default : Нет
Forced : Нет

Текст #2
Идентификатор : 5
Формат : UTF-8
Идентификатор кодека : S_TEXT/UTF8
Идентификатор кодека/Информация : UTF-8 Plain Text
Продолжительность : 1 ч. 56 м.
Битрейт : 32 бит/сек
ElementCount : 948
Размер потока : 27, 6 Кбайт (0%)
Заголовок : Full
Язык : English
Default : Нет
Forced : Нет

Меню
00:00:00.000 : en:Chapter 01
00:09:30.486 : en:Chapter 02
00:20:59.174 : en:Chapter 03
00:29:06.494 : en:Chapter 04
00:40:15.413 : en:Chapter 05
00:52:26.017 : en:Chapter 06
00:59:58.052 : en:Chapter 07
01:10:12.416 : en:Chapter 08
01:18:47.889 : en:Chapter 09
01:29:34.827 : en:Chapter 10
01:40:07.084 : en:Chapter 11
01:48:03.393 : en:Chapter 12

pb.wtf



Скачать Безумцы через торрент https://b.radikal.ru/b09/2002/6e/8e0fb8b4d395.png Скачать фильм Безумцы через торрент бесплантно в хорошем качестве Описание: Действия фильма разворачиваются в середине 15 века. Султан Фатих Мехмет направляет Влада Цепеша в Валахию, хотя вначале он ... 10 10 5
Торрент: Зарегистрирован [2020-05-17 18:59] · скачан: 80 раз
Статус: √ проверено
Размер: 2.83 GB
Как cкачать? Как скачать Безумцы через торрент | UTorrent

% Раздел Тема Автор DL S | L
Фильмы 2018 [DVDrip, WEB-DLRip, HDrip] (DUB, MVO) [ 2.13 GB ] Безумцы / Бесстрашные / Делилер / Deliler [2018 История военный BDRip] MVO Twi7ter Скачать
5 | 0
Фильмы 2018 [DVDrip, WEB-DLRip, HDrip] (DUB, MVO) [ 1.46 GB ] Безумцы / Бесстрашные / Делилер / Deliler [2018 История военный BDRip] MVO Twi7ter Скачать
114 | 4
Фильмы 2018 [DVDrip, WEB-DLRip, HDrip] (DUB, MVO) [ 1.46 GB ] Безумцы / Бесстрашные / Делилер / Deliler [2018 История военный BDRip] MVO bober100 Скачать
4 | 0
Фильмы (WEB-DL 720p, 1080p) [ 4.11 GB ] Безумцы / Бесстрашные / Делилер / Deliler [2018 История военный WEB-DL 1080p] MVO bober100 Скачать
25 | 1
Фильмы (WEB-DL 720p, 1080p) [ 3.69 GB ] Безумцы / Бесстрашные / Делилер / Deliler [2018 История военный WEB-DL 720p] MVO bober100 Скачать
1 | 0

28-11-2019 20:33  

Отключить всю рекламу на сайте

17-05-2020 19:58 Безумцы Скачать торрент  

Чрезмерная жестокость и больше ничегоpb.wtf



    Дорогой пользователь! Огромная просьба, поблагодарите релизера, оцените раздачу и оставьте свои комментарий, если Вы скачали Безумцы через торрент бесплатно! Внесите свою лепту в развитие PiratBit!
    Комментировать посты могут только пользователи прошедшие не сложную регистрацию
    Показать сообщения:    

    Безумцы через торрент
    Скачать бесплатно Безумцы
    Безумцы скачать торрент
    Безумцы смотреть онлайн
    Cкачать фильм Безумцы бесплатно
    Безумцы скачать торрент в хорошем качестве
    Безумцы смотреть онлайн бесплатно в хорошем качестве


    Вы не можете начинать темы
    Вы не можете отвечать на сообщения
    Вы не можете редактировать свои сообщения
    Вы не можете удалять свои сообщения
    Вы не можете голосовать в опросах
    Вы не можете прикреплять файлы к сообщениям
    Вы можете скачивать файлы