2 сезон

iTunes

MVO

1

2 сезон

iTunes

iTunes

1 сезон

RePack

30

Новинка

ВАЖНО

ИГРА 18+

pack

RePack

MK11
pack

Легкие деньги

RePack

jed

RePack

fifa19

RePack

RDR2

RePack

NEED FOR SPEED™ PAYBACK

4 сезон

9 сезон

Бесстыжие 9 сезон

Все сериалы

все сериалы на PB.wtf

RePack

FAR CRY 5

Anonymous, доброй ночи, мы не успеваем собрать деньги на оплату серверов за декабрь и январь, помогите нам пожалуйста в это трудное время. В качестве благодарности мы отключим Вам всю рекламу на сайте (укажите свой ник в строку Ваше имя)!

×
  
Magnet ссылка

Наёмный убийца / Dip huet seung hung (Джон Ву) [1989 г., боевик, триллер, драма, криминал, BDRip 720p / 60 FPS, Авторский (одноголосый)] от R.G. HD-Films pb.wtf

Наёмный убийца через торрент pb.wtf

Раздают: 1 [ 0 KB/s ]
Размер: 4.9 GB | Добавлен: 8 мес. назад | Торрент скачан:85 раз
Скачать  

18-05-2020 13:30 Наёмный убийца Скачать торрент  

Наёмный убийца / Dip huet seung hung
Год выпуска: : 1989
Страна: : Гонконг
Жанр: : боевик, триллер, драма, криминал
Продолжительность: 01:51:04
Перевод: AVO ( Гаврилов )
Субтитры: Russian

Режиссер: Джон Ву

Премьера в мире: 24 марта 1989

rating

В ролях: Чоу Юнь-Фат, Дэнни Ли, Салли Е, Чу Кон, Кеннет Цан, Син Фуй-Он, Йип Винг Чо, Рики И, Бэрри Вонг, Пакмен Вонг, Томми Вон

Сюжет фильма: История о двух мужчинах, которые становятся друзьями, потому что не желают продаваться, не желают вести жизнь, не отвечающую их чувствам и устремлениям. Джеффри — профессиональный убийца, который, выполняя задание, случайно лишает зрения певицу Дженни.
Между слепой певицей и убийцей возникает взаимная привязанность, но самые близкие отношения у Джеффри завязываются с идущим по его следу полицейским инспектором, который признает в наемном убийце родственную душу.
Джеффри хочет оплатить Дженни операцию по восстановлению зрения, но, чтобы добыть деньги, он должен согласиться на совершение еще одного, последнего, как он надеется, задания.


Качество видео: BDRip 720p / 60 FPS
Формат: MKV
Видео кодек: H.264
Аудио кодек: AC3
Видео : x264, 1280 x 688 ( 1,85:1 ), 6126 kbps, 60,000 fps, ( 0.116 bpp)
Аудио : Русский, AC-3, 48.0 KHz, 2 ch, 192 Kbps AVO ( Гаврилов )
Релиз от:

скриншот   скриншот   скриншот   скриншот   скриншот   скриншот  Автор рипа: slaventi-69
Общее
Уникальный идентификатор : 275779793224150188974347601032503406411 (0xCF7941953103DD440252D2E813E4AF4B)
Полное имя : F:\Dip.huet.seung.hung.(1989).BDRip.720p.(60 Fps).mkv
Формат : Matroska
Версия формата : Version 4
Размер файла : 4,90 Гбайт
Продолжительность : 1 ч. 50 м.
Общий поток : 6322 Кбит/сек
Название фильма : Наёмный убийца / Dip huet seung hung (1989) BDRip 720p (60 Fps)
Дата кодирования : UTC 2020-05-11 15:57:55
Программа кодирования : mkvmerge v42.0.0 ('Overtime') 64-bit
Библиотека кодирования : libebml v1.3.10 + libmatroska v1.5.2

Видео
Идентификатор : 1
Формат : AVC
Формат/Информация : Advanced Video Codec
Профиль формата : High@L4.1
Настройки формата : CABAC / 8 Ref Frames
Параметр CABAC формата : Да
Параметр RefFrames формата : 8 кадров
Идентификатор кодека : V_MPEG4/ISO/AVC
Продолжительность : 1 ч. 50 м.
Битрейт : 6126 Кбит/сек
Ширина : 1280 пикселей
Высота : 688 пикселей
Соотношение сторон : 1,85:1
Режим частоты кадров : Постоянный
Частота кадров : 60,000 кадров/сек
Цветовое пространство : YUV
Субдискретизация насыщенности : 4:2:0
Битовая глубина : 8 бит
Тип развёртки : Прогрессивная
Бит/(Пиксели*Кадры) : 0.116
Размер потока : 4,75 Гбайт (97%)
Заголовок : slaventi-69 ( R.G. HD-Films | 60 fps )
Библиотека кодирования : x264 core 130 r2273 b3065e6
Настройки программы : cabac=1 / ref=8 / deblock=1:-1:-1 / analyse=0x3:0x133 / me=umh / subme=9 / psy=1 / psy_rd=1.00:0.00 / mixed_ref=1 / me_range=26 / chroma_me=1 / trellis=2 / 8x8dct=1 / cqm=0 / deadzone=21,11 / fast_pskip=0 / chroma_qp_offset=-2 / threads=6 / lookahead_threads=1 / sliced_threads=0 / nr=0 / decimate=1 / interlaced=0 / bluray_compat=0 / constrained_intra=0 / bframes=5 / b_pyramid=2 / b_adapt=2 / b_bias=0 / direct=3 / weightb=1 / open_gop=0 / weightp=2 / keyint=600 / keyint_min=23 / scenecut=40 / intra_refresh=0 / rc=crf / mbtree=0 / crf=18.7 / qcomp=0.60 / qpmin=0 / qpmax=69 / qpstep=4 / ip_ratio=1.40 / pb_ratio=1.30 / aq=1:1.00
Язык : Chinese
Default : Да
Forced : Нет

Аудио
Идентификатор : 2
Формат : AC-3
Формат/Информация : Audio Coding 3
Коммерческое название : Dolby Digital
Идентификатор кодека : A_AC3
Продолжительность : 1 ч. 50 м.
Вид битрейта : Постоянный
Битрейт : 192 Кбит/сек
Каналы : 2 канала
Channel layout : L R
Частота : 48,0 КГц
Частота кадров : 31,250 кадров/сек (1536 SPF)
Битовая глубина : 16 бит
Метод сжатия : С потерями
Размер потока : 152 Мбайт (3%)
Заголовок : AVO ( Гаврилов )
Язык : Russian
ServiceKind/String : Complete Main
Default : Да
Forced : Нет

Текст
Идентификатор : 3
Формат : UTF-8
Идентификатор кодека : S_TEXT/UTF8
Идентификатор кодека/Информация : UTF-8 Plain Text
Продолжительность : 1 ч. 49 м.
Битрейт : 57 бит/сек
ElementCount : 942
Размер потока : 45,5 Кбайт (0%)
Заголовок : RUS
Язык : Russian
Default : Нет
Forced : Нет

Просьба к переливающим на другие сайты, в оформлении указывайте пожалуйста авторство группы R.G. HD-Films pb.wtf



Скачать Наёмный убийца через торрент https://a.radikal.ru/a36/1810/ea/a4f71edd1c74.jpg Скачать фильм Наёмный убийца через торрент бесплантно в хорошем качестве В ролях: Чоу Юнь-Фат, Дэнни Ли, Салли Е, Чу Кон, Кеннет Цан, Син Фуй-Он, Йип Винг Чо, Рики И, Бэрри Вонг, Пакмен Вонг, Томми Вон Сюжет ... 9.3 10 10
Info! Золотая раздача, скачанное не засчитывается.
Торрент: Зарегистрирован [2020-05-18 13:30] · скачан: 85 раз
Статус: √ проверено
Размер: 4.9 GB
Как cкачать? Как скачать Наёмный убийца через торрент | UTorrent

28-11-2019 20:33  

Отключить всю рекламу на сайте

18-05-2020 15:42 Наёмный убийца Скачать торрент  

А можно еще Круто сваренные ?)pb.wtf



18-05-2020 15:51 Наёмный убийца Скачать торрент  

4760444 писал(а):

А можно еще Круто сваренные ?)

Можно : Круто сваренные / Hard Boiled / Lat sau san taam pb.wtf



18-05-2020 18:16 Наёмный убийца Скачать торрент  

Один из лучших фильмов с Чоу Юнь Фатом.pb.wtf



19-05-2020 19:19 Наёмный убийца Скачать торрент  

Моя тройка лучших фильмов с Чоу Юнь Фатом:

1. Круто сваренные
2. Право на жизнь (Светлое будущее)
3. Наёмный убийца.

Спасибо, просто огромное за этот фильм, увидеть его в таком качестве просто супер!!!pb.wtf



15-08-2020 15:27 Наёмный убийца Скачать торрент  

Забыли про "Непобедимый тигр" pb.wtf



    Дорогой пользователь! Огромная просьба, поблагодарите релизера, оцените раздачу и оставьте свои комментарий, если Вы скачали Наёмный убийца через торрент бесплатно! Внесите свою лепту в развитие PiratBit!
    Комментировать посты могут только пользователи прошедшие не сложную регистрацию
    Показать сообщения:    

    Наёмный убийца через торрент
    Скачать бесплатно Наёмный убийца
    Наёмный убийца скачать торрент
    Наёмный убийца смотреть онлайн
    Cкачать фильм Наёмный убийца бесплатно
    Наёмный убийца скачать торрент в хорошем качестве
    Наёмный убийца смотреть онлайн бесплатно в хорошем качестве


    Вы не можете начинать темы
    Вы не можете отвечать на сообщения
    Вы не можете редактировать свои сообщения
    Вы не можете удалять свои сообщения
    Вы не можете голосовать в опросах
    Вы не можете прикреплять файлы к сообщениям
    Вы можете скачивать файлы