2 сезон

iTunes

1 сезон

1

iTunes

iTunes

iTunes

1 сезон

RePack

30

ИГРА 18+

pack

ВАЖНО

!!Акция!!

Alien_RageХит недели

RePack

MK11
pack

Забери бонус

RePack

jed

!!Акция!!

Alien_Rage

RePack

fifa19

RePack

Assassins Creed: Odyssey

RePack

NEED FOR SPEED™ PAYBACK

4 сезон

9 сезон

Бесстыжие 9 сезон

Все сериалы

все сериалы на PB.wtf

RePack

FAR CRY 5
  

Капитан Саблезуб и Волшебный бриллиант / Kaptein Sabeltann og den magiske diamant (Марит Мум Оне, Расмус А. Сивертсен) [2019, Мультфильм, семейный, WEB-DLRip-AVC] DUB [iTunes] - ExKinoRay pb.wtf

Капитан Саблезуб и Волшебный бриллиант через торрент pb.wtf

Размер: 2.19 GB | Добавлен: 5 мес. 12 д. назад | Торрент скачан:84 раза
Скачать  

18-05-2020 14:54 Капитан Саблезуб и Волшебный бриллиант Скачать торрент  

Капитан Саблезуб и Волшебный бриллиант / Kaptein Sabeltann og den magiske diamant
Год выпуска: 2019
Страна: Норвегия / Qvisten Animation
Жанр: Мультфильм, семейный
Продолжительность: 01:21:40
Перевод: Дублированный | iTunes
Субтитры: Нет

Режиссер: Марит Мум Оне, Расмус А. Сивертсен

rating

В ролях: Карре Хаген Сиднесс, Сири Скьеггедаль, Леонард Валестранд Эйке, Ида Леонора Валестранд Эйке, Бартек Камински, Шарлотта Фрогнер, Йон Ёигарден, Тобиас Зантельман, Тронд Фауса Аурвааг, Ян Мартин Йонсен

Описание: Увлекательные приключения отважного и грозного капитана Саблезуба, бороздящего моря и океаны в поисках несметных сокровищ. Его главная цель — получить волшебный бриллиант, исполняющий любые желания. Однако, обычный мальчишка ухитряется похитить могущественный камень прямо из-под носа бывалого пирата.

Качество: WEB-DLRip-AVC
Формат: MKV
Видео кодек: H.264
Аудио кодек: AC3
Видео: MPEG-4 AVC, 3461 Кбит/с, 1024х552
Аудио#1: Русский (AC3, 6 ch, 384 Кбит/с) Dub (iTunes)

Релиз от:
Общее
Уникальный идентификатор : 217801562284400477909897392373858800698 (0xA3DB0E1950C8CC04875E252CA233943A)
Полное имя : D:\Раздача\Sablezub.2019.WEB-DLRip-AVC.ExKinoRay.mkv
Формат : Matroska
Версия формата : Version 4 / Version 2
Размер файла : 2,19 Гбайт
Продолжительность : 1 ч. 21 м.
Общий поток : 3847 Кбит/сек
Название фильма : Kaptein Sabeltann og den magiske diamant.2019.WEB-DLRip-AVC.grab777 & ExKinoRay
Дата кодирования : UTC 2020-05-18 13:45:27
Программа кодирования : mkvmerge v7.3.0 ('Nouages') 64bit built on Oct 22 2014 18:53:34
Библиотека кодирования : libebml v1.3.0 + libmatroska v1.4.1

Видео
Идентификатор : 1
Формат : AVC
Формат/Информация : Advanced Video Codec
Профиль формата : High@L4.1
Настройки формата : CABAC / 12 Ref Frames
Параметр CABAC формата : Да
Параметр RefFrames формата : 12 кадров
Идентификатор кодека : V_MPEG4/ISO/AVC
Продолжительность : 1 ч. 21 м.
Битрейт : 3461 Кбит/сек
Ширина : 1024 пикселя
Высота : 552 пикселя
Соотношение сторон : 1,85:1
Режим частоты кадров : Постоянный
Частота кадров : 24,000 кадра/сек
Цветовое пространство : YUV
Субдискретизация насыщенности : 4:2:0
Битовая глубина : 8 бит
Тип развёртки : Прогрессивная
Бит/(Пиксели*Кадры) : 0.255
Размер потока : 1,97 Гбайт (90%)
Заголовок : Rip by grab777
Библиотека кодирования : x264 core 148 r2665M a01e339
Настройки программы : cabac=1 / ref=12 / deblock=1:-2:-2 / analyse=0x3:0x113 / me=umh / subme=10 / psy=1 / psy_rd=1.00:0.15 / mixed_ref=1 / me_range=32 / chroma_me=1 / trellis=2 / 8x8dct=1 / cqm=0 / deadzone=21,11 / fast_pskip=1 / chroma_qp_offset=-3 / threads=5 / lookahead_threads=1 / sliced_threads=0 / nr=0 / decimate=1 / interlaced=0 / bluray_compat=0 / constrained_intra=0 / bframes=10 / b_pyramid=2 / b_adapt=2 / b_bias=0 / direct=3 / weightb=1 / open_gop=0 / weightp=2 / keyint=240 / keyint_min=24 / scenecut=40 / intra_refresh=0 / rc_lookahead=40 / rc=crf / mbtree=0 / crf=17.0 / qcomp=0.60 / qpmin=0 / qpmax=69 / qpstep=4 / vbv_maxrate=30000 / vbv_bufsize=40000 / crf_max=0.0 / nal_hrd=none / filler=0 / ip_ratio=1.40 / pb_ratio=1.30 / aq=1:1.00
Язык : English
Default : Да
Forced : Нет
Цветовой диапазон : Limited
Основные цвета : BT.709
Характеристики трансфера : BT.709
Коэффициенты матрицы : BT.709

Аудио
Идентификатор : 2
Формат : AC-3
Формат/Информация : Audio Coding 3
Параметр Endianness формата : Big
Идентификатор кодека : A_AC3
Продолжительность : 1 ч. 21 м.
Вид битрейта : Постоянный
Битрейт : 384 Кбит/сек
Каналы : 6 каналов
Расположение каналов : Front: L C R, Side: L R, LFE
Частота : 48,0 КГц
Частота кадров : 31,250 кадров/сек (1536 SPF)
Битовая глубина : 16 бит
Метод сжатия : С потерями
Размер потока : 224 Мбайт (10%)
Заголовок : Dub (iTunes)
Язык : Russian
ServiceKind/String : Complete Main
Default : Да
Forced : Да

Меню
00:00:00.000 : :Глава 1
00:08:11.708 : :Глава 2
00:16:10.374 : :Глава 3
00:24:17.582 : :Глава 4
00:33:23.415 : :Глава 5
00:42:07.540 : :Глава 6
00:51:40.415 : :Глава 7
01:00:21.331 : :Глава 8
01:08:37.456 : :Глава 9
01:14:51.539 : :Глава 10

pb.wtf



Скачать Капитан Саблезуб и Волшебный бриллиант через торрент http://pic1.kartinco.top/images/12/2xe94.jpg Скачать фильм Капитан Саблезуб и Волшебный бриллиант через торрент бесплантно в хорошем качестве Описание: Увлекательные приключения отважного и грозного капитана Саблезуба, бороздящего моря и океаны в поисках несметных сокровищ. Его ... 10 10 1
Info! Золотая раздача, скачанное не засчитывается.
Торрент: Зарегистрирован [2020-05-18 14:54] · скачан: 84 раз
Статус: √ проверено
Размер: 2.19 GB
Как cкачать? Как скачать Капитан Саблезуб и Волшебный бриллиант через торрент | qTorrent

28-11-2019 20:33  

Отключить всю рекламу на сайте

    Дорогой пользователь! Огромная просьба, поблагодарите релизера, оцените раздачу и оставьте свои комментарий, если Вы скачали Капитан Саблезуб и Волшебный бриллиант через торрент бесплатно! Внесите свою лепту в развитие PiratBit!
    Комментировать посты могут только пользователи прошедшие не сложную регистрацию
    Показать сообщения:    

    Капитан Саблезуб и Волшебный бриллиант через торрент
    Скачать бесплатно Капитан Саблезуб и Волшебный бриллиант
    Капитан Саблезуб и Волшебный бриллиант скачать торрент
    Капитан Саблезуб и Волшебный бриллиант смотреть онлайн
    Cкачать фильм Капитан Саблезуб и Волшебный бриллиант бесплатно
    Капитан Саблезуб и Волшебный бриллиант скачать торрент в хорошем качестве
    Капитан Саблезуб и Волшебный бриллиант смотреть онлайн бесплатно в хорошем качестве


    Вы не можете начинать темы
    Вы не можете отвечать на сообщения
    Вы не можете редактировать свои сообщения
    Вы не можете удалять свои сообщения
    Вы не можете голосовать в опросах
    Вы не можете прикреплять файлы к сообщениям
    Вы можете скачивать файлы