Ссылка на приватное зеркало нашего сайта всего за 1$. Внимание количество ограничено!!!

2 сезон

iTunes

1 сезон

1

iTunes

iTunes

iTunes

1 сезон

RePack

30

ИГРА 18+

pack

ВАЖНО

!!Акция!!

Alien_RageХит недели

RePack

MK11
pack

Забери бонус

RePack

jed

!!Акция!!

Alien_Rage

RePack

fifa19

RePack

Assassins Creed: Odyssey

RePack

NEED FOR SPEED™ PAYBACK

4 сезон

9 сезон

Бесстыжие 9 сезон

Все сериалы

все сериалы на PB.wtf

RePack

FAR CRY 5
  

Адмиралы района / Сезон: 1 / Серии: 1-16 из 16 (Михаил Вассербаум, Сергей Полуянов) [2020, Драма, криминал, WEBRip] pb.wtf

Адмиралы района через торрент pb.wtf

Раздают: 1 [ 9 KB/s ]
Размер: 10.02 GB | Добавлен: 4 мес. 21 д. назад | Торрент скачан:55 раз
Скачать  

19-05-2020 03:15 Адмиралы района Скачать торрент  

Адмиралы района
Год выпуска: 2020
Страна: Россия
Жанр: Драма, криминал
Продолжительность: ~ 00:45:00
Субтитры: отсутствуют

Режиссер: Михаил Вассербаум, Сергей Полуянов (II)



В ролях: Максим Дахненко, Эдуард Флёров, Евгений Никитин, Андрей Коровниченко, Денис Васильев, Ирина Вальц, Георгий Болонев, Заза Чантурия, Сергей Шоколов, Дмитрий Соловьёв (II), Глафира Козулина, Сергей Шкарбан, Руслан Китайгородский, Александр Мосолов (I), Алла Еминцева, Кирилл Иванов, Антон Сычёв, Алексей Шаблюк, Анастасия Евланова, Геннадий Свирь, Иван Васильев, Руслан Барабанов, Теона Гумберидзе, Анна Геллер, Николай Яковлев (III)

Описание: В крупном торговом центре бывший полковник МВД Игнатьев, ценой свой жизни, предотвращает теракт. Для ФСБ и особенно для друга погибшего - майора Андрея Девятова (Максим Дахненко), делом части становится раскрытие преступления, произошедшего в самом криминогенном районе города - Новоадмиралтейском. Девятов выходит на след предполагаемого исполнителя теракта, но во время погони за ним происходит ДТП, в которое попадает дочь авторитетного чиновника и бизнесмена Круглова (Алексей Фалилеев). Круглов добивается увольнения Девятова из ФСБ. Тем временем, руководство местного полицейского управления явно попустительствует и, очевидно, погрязло в коррупции. Чтобы доказать это генералу Рубцову (Евгений Никитин), необходимо собрать команду новых, не замешанных в коррупции, оперативников. Так появляются «адмиралы района». Бывший руководитель Девятова Старыгин (Андрей Коровниченко) способствует переводу своего подопечного в полицию на должность начальника Новоадмиралтейского УМВД. Так он становится одним из «адмиралов района» и продолжает разбираться в деле о теракте, правда теперь с другой стороны.

Качество: WEBRip
Формат: AVI

Видео: XviD, ~ 1600 Кбит/с, 720x400, 25 кадр/с
Аудио: 48.0 kHz, AC3 Dolby Digital, 2/0 (L,R) ch, ~ 192 kbps
скриншот  скриншот  скриншот  скриншот  скриншот  

General
Complete name : H:\fiiles x\Адмиралы района .2020.WEB-DLRip.Files-x\02. Адмиралы района .2020.WEB-DLRip.Files-x.avi
Format : AVI
Format/Info : Audio Video Interleave
File size : 642 MiB
Duration : 49mn 47s
Overall bit rate : 1 802 Kbps
Writing application : VirtualDubMod 1.5.10.3 | www.virtualdub-fr.org || (build 2550/release)
Writing library : VirtualDubMod build 2550/release

Video
ID : 0
Format : MPEG-4 Visual
Format profile : Advanced Simple@L5
Format settings, BVOP : 1
Format settings, QPel : No
Format settings, GMC : No warppoints
Format settings, Matrix : Custom
Codec ID : XVID
Codec ID/Hint : XviD
Duration : 49mn 47s
Bit rate : 1 600 Kbps
Width : 720 pixels
Height : 400 pixels
Display aspect ratio : 16:9
Frame rate : 25.000 fps
Color space : YUV
Chroma subsampling : 4:2:0
Bit depth : 8 bits
Scan type : Progressive
Compression mode : Lossy
Bits/(Pixel*Frame) : 0.222
Stream size : 570 MiB (89%)
Writing library : XviD 73

Audio
ID : 1
Format : AC-3
Format/Info : Audio Coding 3
Mode extension : CM (complete main)
Codec ID : 2000
Duration : 49mn 47s
Bit rate mode : Constant
Bit rate : 192 Kbps
Channel(s) : 2 channels
Channel positions : Front: L R
Sampling rate : 48.0 KHz
Bit depth : 16 bits
Compression mode : Lossy
Stream size : 68.4 MiB (11%)
Alignment : Split accross interleaves
Interleave, duration : 40 ms (1.00 video frame)
Interleave, preload duration : 500 ms

Когда раздача ведётся путём добавления новых серий, при каждом добавлении создётся новый торрент. Чтобы начать докачку новой серии, пользователям необходимо сделать следующее:
(1) остановить скачивание,
(2) удалить старый торрент у себя из клиента (старые серии удалять не надо),
(3) скачать новый торрент и запустить его у себя в клиенте вместо старого, при этом указать клиенту путь в старую папку, куда и должно происходить скачивание новых серий.
Ваш клиент при этом должен произвести хеширование (проверку) старой папки (если не производит сам - помогите ему сделать это), и будет докачивать только те серии, которых у вас ещё нет. Старые серии при этом не удаляются, а продолжают раздаваться!
Eсли вы уже удалили старые серии, то предотвратить повторную закачку старых серий можно, отжав галочку в соответсвующих местах при запуске нового торрента. По возможности, желательно не удалять старые серии как можно дольше, чтобы релизер не столько продолжал раздавать старые серии, а смог сконцентрироваться на новых.
pb.wtf



Скачать Адмиралы района через торрент https://img11.lostpic.net/2020/05/18/634cad63db998e2bd6bd7eeab2b7edc5.jpg Скачать фильм Адмиралы района через торрент бесплантно в хорошем качестве Описание: В крупном торговом центре бывший полковник МВД Игнатьев, ценой свой жизни, предотвращает теракт. Для ФСБ и особенно для друга ... 10 10 6
Торрент: Зарегистрирован [2020-06-04 17:29] · скачан: 55 раз
Статус: √ проверено
Размер: 10.02 GB
Как cкачать? Как скачать Адмиралы района через торрент | qTorrent

% Раздел Тема Автор DL S | L
Наши сериалы [ 20.53 GB ] Адмиралы района / Сезон: 1 / Серии: 1-16 из 16 [2020 WEBRip 720p] bober100 Скачать
1 | 0
Наши сериалы [ 12.19 GB ] Адмиралы района / Сезон: 1 / Серии: 1-16 из 16 [2020 WEBRip-AVC] bober100 Скачать
1 | 0
Наши сериалы [ 34.37 GB ] Адмиралы района / Сезон: 1 / Серии: 1-16 из 16 [2020 WEBRip 1080p] bober100 Скачать
1 | 0
Наши сериалы [ 10.19 GB ] Адмиралы района / Сезон: 1 / Серии: 1-16 из 16 [2020 SATRip] bober100 Скачать
3 | 0

28-11-2019 20:33  

Отключить всю рекламу на сайте

    Дорогой пользователь! Огромная просьба, поблагодарите релизера, оцените раздачу и оставьте свои комментарий, если Вы скачали Адмиралы района через торрент бесплатно! Внесите свою лепту в развитие PiratBit!
    Комментировать посты могут только пользователи прошедшие не сложную регистрацию
    Показать сообщения:    

    Адмиралы района через торрент
    Скачать бесплатно Адмиралы района
    Адмиралы района скачать торрент
    Адмиралы района смотреть онлайн
    Cкачать фильм Адмиралы района бесплатно
    Адмиралы района скачать торрент в хорошем качестве
    Адмиралы района смотреть онлайн бесплатно в хорошем качестве


    Вы не можете начинать темы
    Вы не можете отвечать на сообщения
    Вы не можете редактировать свои сообщения
    Вы не можете удалять свои сообщения
    Вы не можете голосовать в опросах
    Вы не можете прикреплять файлы к сообщениям
    Вы можете скачивать файлы