Ссылка на приватное зеркало нашего сайта всего за 1$. Внимание количество ограничено!!!

2 сезон

iTunes

1 сезон

1

2 сезон

2 сезон

iTunes

1 сезон

RePack

30

Ultimate

ВАЖНО

ИГРА 18+

pack

RePack

MK11
pack

Забери бонус

RePack

jed

!!Акция!!

Alien_Rage

RePack

fifa19

RePack

Assassins Creed: Odyssey

RePack

NEED FOR SPEED™ PAYBACK

4 сезон

9 сезон

Бесстыжие 9 сезон

Все сериалы

все сериалы на PB.wtf

RePack

FAR CRY 5
  

Дитя крови / Blood Child (Дженнифер Филлипс) [2017, Ужасы, фэнтези, триллер, реальные события, BDRemux] MVO [Creative Arts Media] - ExKinoRay pb.wtf

Дитя крови через торрент pb.wtf

Размер: 13.9 GB | Добавлен: 6 мес. назад | Торрент скачан:11 раз
Скачать  

19-05-2020 09:50 Дитя крови Скачать торрент  

Дитя крови / Blood Child
Год выпуска: 2017
Страна: Канада, США / Castles in the Air Pictures, Laughing Cat Productions
Жанр: Ужасы, фэнтези, триллер, реальные события
Продолжительность: 01:32:50
Перевод: Профессиональный многоголосый | Официальный перевод по заказу Creative Arts Media
Субтитры: Английские

Режиссер: Дженнифер Филлипс

rating

В ролях: Аликс Мелоне, Синтия Ли МакКуарри, Байден-Холл, Лиза Ковак, Шарлотта Кэттелл, Коко Уига, Тара Читарони, Джон Хаслетт Мерфи, Стив Касан, Лия Радда

Описание: Супруги Билл и Эшли ДиАнджело живут в Сингапуре, где Билл работает представителем крупной компании. Пара ждёт ребёнка и жизнь кажется совершенно безоблачной. Но когда у Эшли случается выкидыш, она теряет душевный покой и заставляет мужа вернуться в США. Там Эшли узнаёт, что их многолетняя горничная, индонезийка Сити, знакома с чародеем, который проводит колдовские обряды, и просит вернуть к жизни умершего ребёнка. Однако, девушка не хочет понять, что цена такого заклятья очень высока и отныне над её семьёй нависла смертельная опасность.

БЕЗ РЕКЛАМЫ!

Качество: BDRemux
Формат: MKV
Видео кодек: H.264
Аудио кодек: AC3
Видео: MPEG-2 AVC, 17.7 Мбит/с, 1920x1080
Аудио#1: Русский (AC3, 6 ch, 384 Кбит/с) MVO
Аудио#2: Английский (DTS-HD MA, 6 ch, 3387 Кбит/с) Original

Релиз от:
Общее
Уникальный идентификатор : 219939802691181402218861862455755924871 (0xA576DD7D85837A1BA640C9ADFFFBE587)
Полное имя : D:\Раздача\Ditya.Krovi.2017.BDRemux.1080p.ExKinoRay.mkv
Формат : Matroska
Версия формата : Version 4 / Version 2
Размер файла : 13,9 Гбайт
Продолжительность : 1 ч. 32 м.
Режим общего битрейта : Переменный
Общий поток : 21,4 Мбит/сек
Название фильма : Blood Child (2017) BDRemux.1080p.grab777 & ExKinoRay
Дата кодирования : UTC 2020-05-19 07:19:54
Программа кодирования : mkvmerge v7.3.0 ('Nouages') 64bit built on Oct 22 2014 18:53:34
Библиотека кодирования : libebml v1.3.0 + libmatroska v1.4.1

Видео
Идентификатор : 1
Формат : MPEG Video
Версия формата : Version 2
Профиль формата : Main@High
Настройки формата : CustomMatrix / BVOP
Параметр BVOP формата : Да
Параметр матрицы формата : Выборочная
Параметр GOP формата : Variable
Идентификатор кодека : V_MPEG2
Идентификатор кодека/Информация : MPEG 1 or 2 Video
Продолжительность : 1 ч. 32 м.
Вид битрейта : Переменный
Битрейт : 17,7 Мбит/сек
Максимальный битрейт : 25,0 Мбит/сек
Ширина : 1920 пикселей
Высота : 1080 пикселей
Соотношение сторон : 16:9
Режим частоты кадров : Постоянный
Частота кадров : 23,976 (24000/1001) кадра/сек
Цветовое пространство : YUV
Субдискретизация насыщенности : 4:2:0
Битовая глубина : 8 бит
Тип развёртки : Прогрессивная
Метод сжатия : С потерями
Бит/(Пиксели*Кадры) : 0.355
Временной код первого кадра : 00:00:00:00
Оригинал временного кода : Group of pictures header
GOP, открыто/закрыто : Закрыто
Размер потока : 11,5 Гбайт (82%)
Заголовок : grab777
Язык : English
Default : Да
Forced : Нет

Аудио #1
Идентификатор : 2
Формат : AC-3
Формат/Информация : Audio Coding 3
Параметр Endianness формата : Big
Идентификатор кодека : A_AC3
Продолжительность : 1 ч. 32 м.
Вид битрейта : Постоянный
Битрейт : 384 Кбит/сек
Каналы : 6 каналов
Расположение каналов : Front: L C R, Side: L R, LFE
Частота : 48,0 КГц
Частота кадров : 31,250 кадров/сек (1536 SPF)
Битовая глубина : 16 бит
Метод сжатия : С потерями
Размер потока : 255 Мбайт (2%)
Заголовок : MVO
Язык : Russian
ServiceKind/String : Complete Main
Default : Да
Forced : Да

Аудио #2
Идентификатор : 3
Формат : DTS
Формат/Информация : Digital Theater Systems
Профиль формата : MA / Core
Режим : 16
Параметр Endianness формата : Big
Идентификатор кодека : A_DTS
Продолжительность : 1 ч. 32 м.
Вид битрейта : Переменный / Постоянный
Битрейт : 3387 Кбит/сек / 1509 Кбит/сек
Каналы : 6 каналов
Расположение каналов : Front: L C R, Side: L R, LFE
Частота : 48,0 КГц
Частота кадров : 93,750 кадра/сек (512 SPF)
Битовая глубина : 24 бит
Метод сжатия : Без потерь / Lossy
Размер потока : 2,20 Гбайт (16%)
Заголовок : Original
Язык : English
Default : Нет
Forced : Нет

Текст
Идентификатор : 4
Формат : UTF-8
Идентификатор кодека : S_TEXT/UTF8
Идентификатор кодека/Информация : UTF-8 Plain Text
Продолжительность : 1 ч. 32 м.
Битрейт : 48 бит/сек
ElementCount : 1307
Размер потока : 32,7 Кбайт (0%)
Язык : English
Default : Нет
Forced : Нет

Меню
00:00:00.000 : en:Chapter 1
00:11:52.170 : en:Chapter 2
00:25:14.012 : en:Chapter 3
00:37:06.182 : en:Chapter 4
00:49:24.420 : en:Chapter 5
01:01:09.291 : en:Chapter 6
01:12:59.375 : en:Chapter 7
01:24:11.922 : en:Chapter 8

pb.wtf



Скачать Дитя крови через торрент http://pic1.kartinco.top/images/12/7vykb.jpg Скачать фильм Дитя крови через торрент бесплантно в хорошем качестве Описание: Супруги Билл и Эшли ДиАнджело живут в Сингапуре, где Билл работает представителем крупной компании. Пара ждёт ребёнка и жизнь ... 5 10 1
Info! Золотая раздача, скачанное не засчитывается.
Торрент: Зарегистрирован [2020-05-19 09:50] · скачан: 11 раз
Статус: √ проверено
Размер: 13.9 GB
Как cкачать? Как скачать Дитя крови через торрент | qTorrent

28-11-2019 20:33  

Отключить всю рекламу на сайте

    Дорогой пользователь! Огромная просьба, поблагодарите релизера, оцените раздачу и оставьте свои комментарий, если Вы скачали Дитя крови через торрент бесплатно! Внесите свою лепту в развитие PiratBit!
    Комментировать посты могут только пользователи прошедшие не сложную регистрацию
    Показать сообщения:    

    Дитя крови через торрент
    Скачать бесплатно Дитя крови
    Дитя крови скачать торрент
    Дитя крови смотреть онлайн
    Cкачать фильм Дитя крови бесплатно
    Дитя крови скачать торрент в хорошем качестве
    Дитя крови смотреть онлайн бесплатно в хорошем качестве


    Вы не можете начинать темы
    Вы не можете отвечать на сообщения
    Вы не можете редактировать свои сообщения
    Вы не можете удалять свои сообщения
    Вы не можете голосовать в опросах
    Вы не можете прикреплять файлы к сообщениям
    Вы можете скачивать файлы