2 сезон

iTunes

MVO

1

2 сезон

iTunes

iTunes

1 сезон

RePack

30

Новинка

ВАЖНО

ИГРА 18+

pack

RePack

MK11
pack

Легкие деньги

RePack

jed

RePack

fifa19

RePack

RDR2

RePack

NEED FOR SPEED™ PAYBACK

4 сезон

9 сезон

Бесстыжие 9 сезон

Все сериалы

все сериалы на PB.wtf

RePack

FAR CRY 5

Anonymous, доброе утро, мы не успеваем собрать деньги на оплату серверов за декабрь и январь, помогите нам пожалуйста в это трудное время. В качестве благодарности мы отключим Вам всю рекламу на сайте (укажите свой ник в строку Ваше имя)!

×
  
Magnet ссылка

Отряд особого назначения / Forces speciales (Стефан Рибожа) [2011 г., Боевик, Драма, Приключения, BDRip 720p / 60 FPS, Дубляж] от R.G. HD-Films pb.wtf

Отряд особого назначения через торрент pb.wtf

Раздают: 1 [ 0 KB/s ]
Размер: 3.92 GB | Добавлен: 7 мес. назад | Торрент скачан:100 раз
Скачать  

19-05-2020 15:38 Отряд особого назначения Скачать торрент  

Отряд особого назначения / Forces speciales
Год выпуска: : 2011
Страна: : Франция
Жанр: : Боевик, драма, приключения
Продолжительность: 01:48:46
Перевод: Дубляж
Субтитры: Ukrainian, English

Режиссер: Стефан Рибожа

Бюджет: €10 000 000
Премьера в мире: 2 ноября 2011

rating

В ролях: Дайан Крюгер, Джимон Хунсу, Бенуа Мажимель, Дэнис Меночет, Рафаэль Персонас, Ален Фиглаж, Ален Аливон, Мехди Неббу, Раз Деган, Чеки Карио

Сюжет фильма: Молодая французская журналистка похищена в Афганистане талибами. Правительство Франции отказывается выполнять условия похитителей. Тогда талибы размещают в Интернете жестокое видео с обратным отсчетом времени до ее казни. На выручку девушке отправляется элитный отряд французского спецназа. Но мало отбить жертву у бандитов, нужно еще вывести ее на Большую землю. Возвращение домой становится крестным путем и для гражданской журналистки, и для бывалых вояк-спецназовцев.


Качество видео: BDRip 720p / 60 FPS
Формат: MKV
Видео кодек: H.264
Аудио кодек: AC3
Видео : x264, 1280 x 536 ( 2,40:1 ), 4772 kbps, 60,000 fps, ( 0.116 bpp)
Аудио : Русский, AC-3, 48.0 KHz, 6 ch, 384 Kbps
Релиз от:

скриншот   скриншот   скриншот   скриншот   скриншот   скриншот  Автор рипа: slaventi-69
Общее
Уникальный идентификатор : 90041337175074549844575211341980156456 (0x43BD54AC0513DE5E4B212938AA50C228)
Полное имя : F:\Forces.speciales.(2011).BDRip.720p.(60 Fps).mkv
Формат : Matroska
Версия формата : Version 4
Размер файла : 3,92 Гбайт
Продолжительность : 1 ч. 48 м.
Общий поток : 5160 Кбит/сек
Название фильма : Отряд особого назначения / Forces speciales (2011) BDRip 720p (60 Fps)
Дата кодирования : UTC 2020-05-18 08:28:06
Программа кодирования : mkvmerge v35.0.0 ('All The Love In The World') 64-bit
Библиотека кодирования : libebml v1.3.9 + libmatroska v1.5.2

Видео
Идентификатор : 1
Формат : AVC
Формат/Информация : Advanced Video Codec
Профиль формата : High@L4.1
Настройки формата : CABAC / 8 Ref Frames
Параметр CABAC формата : Да
Параметр RefFrames формата : 8 кадров
Идентификатор кодека : V_MPEG4/ISO/AVC
Продолжительность : 1 ч. 48 м.
Битрейт : 4772 Кбит/сек
Ширина : 1280 пикселей
Высота : 536 пикселей
Соотношение сторон : 2,40:1
Режим частоты кадров : Постоянный
Частота кадров : 60,000 кадров/сек
Цветовое пространство : YUV
Субдискретизация насыщенности : 4:2:0
Битовая глубина : 8 бит
Тип развёртки : Прогрессивная
Бит/(Пиксели*Кадры) : 0.116
Размер потока : 3,62 Гбайт (92%)
Заголовок : slaventi-69 ( R.G. HD-Films | 60 fps )
Библиотека кодирования : x264 core 130 r2273 b3065e6
Настройки программы : cabac=1 / ref=9 / deblock=1:-1:-1 / analyse=0x3:0x113 / me=umh / subme=9 / psy=1 / psy_rd=1.00:0.00 / mixed_ref=1 / me_range=32 / chroma_me=1 / trellis=2 / 8x8dct=1 / cqm=0 / deadzone=21,11 / fast_pskip=1 / chroma_qp_offset=-2 / threads=12 / lookahead_threads=8 / sliced_threads=0 / nr=0 / decimate=1 / interlaced=0 / bluray_compat=0 / constrained_intra=0 / bframes=5 / b_pyramid=1 / b_adapt=2 / b_bias=0 / direct=2 / weightb=1 / open_gop=0 / weightp=2 / keyint=250 / keyint_min=25 / scenecut=40 / intra_refresh=0 / rc=crf / mbtree=0 / crf=18.7 / qcomp=0.60 / qpmin=0 / qpmax=69 / qpstep=4 / ip_ratio=1.40 / pb_ratio=1.30 / aq=1:1.00
Язык : French
Default : Да
Forced : Нет

Аудио
Идентификатор : 2
Формат : AC-3
Формат/Информация : Audio Coding 3
Коммерческое название : Dolby Digital
Идентификатор кодека : A_AC3
Продолжительность : 1 ч. 48 м.
Вид битрейта : Постоянный
Битрейт : 384 Кбит/сек
Каналы : 6 каналов
Channel layout : L R C LFE Ls Rs
Частота : 48,0 КГц
Частота кадров : 31,250 кадров/сек (1536 SPF)
Битовая глубина : 16 бит
Метод сжатия : С потерями
Размер потока : 299 Мбайт (7%)
Заголовок : Dub
Язык : Russian
ServiceKind/String : Complete Main
Default : Да
Forced : Нет

Текст #1
Идентификатор : 3
Формат : UTF-8
Идентификатор кодека : S_TEXT/UTF8
Идентификатор кодека/Информация : UTF-8 Plain Text
Продолжительность : 1 ч. 44 м.
Битрейт : 43 бит/сек
ElementCount : 811
Размер потока : 33,0 Кбайт (0%)
Язык : Ukrainian
Default : Нет
Forced : Нет

Текст #2
Идентификатор : 4
Формат : UTF-8
Идентификатор кодека : S_TEXT/UTF8
Идентификатор кодека/Информация : UTF-8 Plain Text
Продолжительность : 1 ч. 47 м.
Битрейт : 15 бит/сек
ElementCount : 597
Размер потока : 12,4 Кбайт (0%)
Язык : English
Default : Нет
Forced : Нет

Просьба к переливающим на другие сайты, в оформлении указывайте пожалуйста авторство группы R.G. HD-Films pb.wtf



Скачать Отряд особого назначения через торрент http://lostpic.net/images/e8c0432a3a4dbd2ec90781b271d0a728.png Скачать фильм Отряд особого назначения через торрент бесплантно в хорошем качестве В ролях: Дайан Крюгер, Джимон Хунсу, Бенуа Мажимель, Дэнис Меночет, Рафаэль Персонас, Ален Фиглаж, Ален Аливон, Мехди Неббу, Раз Деган, ... 10 10 6
Торрент: Зарегистрирован [2020-05-19 15:38] · скачан: 100 раз
Статус: √ проверено
Размер: 3.92 GB
Как cкачать? Как скачать Отряд особого назначения через торрент | UTorrent

28-11-2019 20:33  

Отключить всю рекламу на сайте

19-05-2020 19:15 Отряд особого назначения Скачать торрент  

Большое, Вам, спасибо за фильм, уважаемый!!!. Единственный, чисто французский, в моей коллекции.pb.wtf



20-05-2020 04:22 Отряд особого назначения Скачать торрент  

slaventi-69, pb.wtf



    Дорогой пользователь! Огромная просьба, поблагодарите релизера, оцените раздачу и оставьте свои комментарий, если Вы скачали Отряд особого назначения через торрент бесплатно! Внесите свою лепту в развитие PiratBit!
    Комментировать посты могут только пользователи прошедшие не сложную регистрацию
    Показать сообщения:    

    Отряд особого назначения через торрент
    Скачать бесплатно Отряд особого назначения
    Отряд особого назначения скачать торрент
    Отряд особого назначения смотреть онлайн
    Cкачать фильм Отряд особого назначения бесплатно
    Отряд особого назначения скачать торрент в хорошем качестве
    Отряд особого назначения смотреть онлайн бесплатно в хорошем качестве


    Вы не можете начинать темы
    Вы не можете отвечать на сообщения
    Вы не можете редактировать свои сообщения
    Вы не можете удалять свои сообщения
    Вы не можете голосовать в опросах
    Вы не можете прикреплять файлы к сообщениям
    Вы можете скачивать файлы