Всегда рабочее зеркало без VPN и Proxy просто перед .vidak.icu напиши любое слово или цифру, Пример http://cpfm.vidak.icu

MVO

MVO

1 сезон

1

1 сезон

iTunes

1 сезон

13

1 сезон

Deluxe

pack

Рекомендуем

Repack

30

ВАЖНО

RePack

MK11

RePack

jed

RePack

fifa19

RePack

RDR2

RePack

NEED FOR SPEED™ PAYBACK

Кинопоиск HD

6 сезон

 Острые козырьки 6 сезон

Все сериалы

все сериалы на PB.wtf

RePack

FAR CRY 5
  
Magnet ссылка

Лучший стрелок / Топ Ган / Top Gun (Тони Скотт) [1986, Боевик, мелодрама, драма, UHD BDRemux 2160p, (Dolby Vision TV)] MVO [Лицензия] pb.wtf

Лучший стрелок через торрент pb.wtf

Размер: 43.22 GB | Добавлен: 2 года 2 мес. назад | Торрент скачан:50 раз
Смотреть онлайн Лучший стрелок | Скачать    Ребята, помогите собрать деньги на оплату серверов!!!

19-05-2020 17:28 Лучший стрелок Скачать торрент  

Лучший стрелок | Топ Ган | Top Gun
Год выпуска: 1986
Страна: США
Студия: Paramount Pictures
Жанр: Боевик, мелодрама, драма
Продолжительность: 01:49:26
Перевод: Профессиональный (многоголосый) | Лицензия
Субтитры: Русские (Forced, отдельно)

Режиссер: Тони Скотт

rating

В ролях: Том Круз, Келли Макгиллис, Вэл Килмер, Энтони Эдвардс, Том Скерритт, Майкл Айронсайд, Джон Стокуэлл, Бэрри Табб, Рик Россович, Тим Роббинс, Кларенс Гильярд мл., Уип Хабли, Джеймс Толкан, Мег Райан, Адриан Пасдар, Рэндалл Брэйди, Дьюк Страуд, Брайан Шиэн, Рон Кларк, Фрэнк Пеше, Пит Петтигрю, Трой Хантер, Линда Рэй Юргенс, Т.Дж. Кэссиди, Деби Фарес, Скотт Крамбек

Описание: Пит Митчелл по прозвищу Мэверик (Скиталец), лётчик истребителя морской авиации США, направляется в элитную школу «Супер-ас», где борется за получение этого почётного звания. Он искусный пилот истребителя Ф-14, курсант элитного училища, летающий как Бог и руководимый как в жизни, так и в небе инстинктами, а не разумом, влюбляется в инструктора училища, астрофизика, которая долгое время отказывает ему во взаимности. Уступит ли она его белозубой улыбке?

Качество: UHD BDRemux 2160p | Dolby Vision TV
Формат: MP4

Видео: 3840x2160 at 23.976 fps, MPEG-H HEVC HDR, Dolby Vision Video, 51100 kbps avg
Аудио: 48 kHz, AC3, 5.1, 640 Kbps | Лицензия | RUS |
Данный вид релизов (контейнер MP4) предназначен для встроенного в ТВ (соответственно, с поддержкой DV) плеер.
Т.Е. Можно использовать как USB flash/HDD, так и DLNA / Plex - подобные сервисы/программы. дополнительный-внешний плеер не обязателен.

Внимание!
На моделях LG 2016 возможны сюрпризы "через раз", 2017-2018 должно идти без сюрпризов )
скриншот  скриншот  скриншот  скриншот  скриншот  

General
Complete name : D:Video222Top.Gun.1986.BDREMUX.2160p.HDR.DV_TV.seleZenTop.Gun.1986.BDREMUX.2160p.HDR.DV_TV.seleZen.mp4
Format : MPEG-4
Format profile : Base Media / Version 2
Codec ID : mp42 (mp42/dby1/isom)
File size : 43.2 GiB
Duration : 1 h 49 min
Overall bit rate : 56.5 Mb/s
Encoded date : UTC 2020-05-19 08:04:00
Tagged date : UTC 2020-05-19 08:04:00

Video #1
ID : 1
Format : HEVC
Format/Info : High Efficiency Video Coding
Format profile : Main [email protected]@High
HDR format : SMPTE ST 2086, HDR10 compatible
Codec ID : hev1
Codec ID/Info : High Efficiency Video Coding
Duration : 1 h 49 min
Bit rate : 51.1 Mb/s
Width : 3 840 pixels
Height : 2 160 pixels
Display aspect ratio : 16:9
Frame rate mode : Constant
Frame rate : 23.976 (24000/1001) FPS
Color space : YUV
Chroma subsampling : 4:2:0 (Type 2)
Bit depth : 10 bits
Bits/(Pixel*Frame) : 0.257
Stream size : 39.1 GiB (90%)
Default : No
Encoded date : UTC 2020-05-19 08:04:00
Tagged date : UTC 2020-05-19 08:04:00
Color range : Limited
Color primaries : BT.2020
Transfer characteristics : PQ
Matrix coefficients : BT.2020 non-constant
Mastering display color pri : Display P3
Mastering display luminance : min: 0.0050 cd/m2, max: 4000 cd/m2
Maximum Content Light Level : 1000 cd/m2
Maximum Frame-Average Light : 401 cd/m2
Codec configuration box : hvcC

Video #2
ID : 2
Format : HEVC
Format/Info : High Efficiency Video Coding
Format profile : Main [email protected]@High
HDR format : Dolby Vision, Version 1.0, dvhe.07.06, EL+RPU, Blu-ray compatible / SMPTE ST 2086, HDR10 compatible
Codec ID : dvhe
Codec ID/Info : High Efficiency Video Coding with Dolby Vision
Duration : 1 h 49 min
Bit rate : 4 787 kb/s
Width : 1 920 pixels
Height : 1 080 pixels
Display aspect ratio : 16:9
Frame rate mode : Constant
Frame rate : 23.976 (24000/1001) FPS
Color space : YUV
Chroma subsampling : 4:2:0 (Type 2)
Bit depth : 10 bits
Bits/(Pixel*Frame) : 0.096
Stream size : 3.66 GiB (8%)
Default : No
Encoded date : UTC 2020-05-19 08:04:00
Tagged date : UTC 2020-05-19 08:04:00
Color range : Limited
Color primaries : BT.2020
Transfer characteristics : PQ
Matrix coefficients : BT.2020 non-constant
Mastering display color pri : Display P3
Mastering display luminance : min: 0.0050 cd/m2, max: 4000 cd/m2
Codec configuration box : hvcC+dvcC

Audio
ID : 3
Format : AC-3
Format/Info : Audio Coding 3
Commercial name : Dolby Digital
Codec ID : ac-3
Duration : 1 h 49 min
Bit rate mode : Constant
Bit rate : 640 kb/s
Channel(s) : 6 channels
Channel layout : L R C LFE Ls Rs
Sampling rate : 48.0 kHz
Frame rate : 31.250 FPS (1536 SPF)
Compression mode : Lossy
Stream size : 501 MiB (1%)
Language : Russian
Service kind : Complete Main
Default : No
Encoded date : UTC 2020-05-19 08:04:00
Tagged date : UTC 2020-05-19 08:04:00

pb.wtf



Скачать Лучший стрелок через торрент https://img11.lostpic.net/2020/05/19/7d0818b7c924d8b1d2db02db0e0da2ab.jpg Скачать, смотреть онлайн Лучший стрелок бесплантно в хорошем качестве Описание: Пит Митчелл по прозвищу Мэверик (Скиталец), лётчик истребителя морской авиации США, направляется в элитную школу «Супер-ас», где ... 10 10 2
Торрент: Зарегистрирован [2020-05-19 17:28] · скачан: 50 раз
Статус: √ проверено
Размер: 43.22 GB
Как cкачать? Как скачать Лучший стрелок через торрент | UTorrent

% Раздел Тема Автор DL S | L
Ultra HD (UHD: 2K, 4K, 8K) — видео сверхвысокой чёткости [ 60.37 GB ] Лучший стрелок / Топ Ган / Top Gun [1986 UHD BDRemux 2160p] 6xMVO +7xAVO bober100 Скачать
1 | 0
Ultra HD (UHD: 2K, 4K, 8K) — видео сверхвысокой чёткости [ 61.72 GB ] Лучший стрелок / Топ Ган / Top Gun [1986 UHD Blu-Ray EUR 2160p ] MVO [] bober100 Скачать
1 | 0
Фильмы до 2000 г. [ 2.78 GB ] Лучший стрелок / Топ Ган / Top Gun [1986 военный DVDRip-AVC] [Fullscreen] 2x[MVO] killermax2013 Скачать
6 | 0

28-11-2019 20:33  

Отключить вcю реклaмy на сайте

    Дорогой пользователь! Огромная просьба, поблагодарите релизера, оцените раздачу и оставьте свои комментарий, если Вы скачали Лучший стрелок через торрент бесплатно!
    Комментировать посты могут только пользователи прошедшие не сложную регистрацию
    Показать сообщения:    

    Лучший стрелок через торрент
    Скачать бесплатно Лучший стрелок
    Лучший стрелок скачать торрент
    Лучший стрелок смотреть онлайн
    Cкачать фильм Лучший стрелок бесплатно
    Лучший стрелок скачать торрент в хорошем качестве
    Лучший стрелок смотреть онлайн бесплатно в хорошем качестве


    Вы не можете начинать темы
    Вы не можете отвечать на сообщения
    Вы не можете редактировать свои сообщения
    Вы не можете удалять свои сообщения
    Вы не можете голосовать в опросах
    Вы не можете прикреплять файлы к сообщениям
    Вы можете скачивать файлы