Ссылка на приватное зеркало нашего сайта всего за 1$. Внимание количество ограничено!!!

2 сезон

iTunes

1 сезон

1

iTunes

iTunes

iTunes

1 сезон

RePack

30

ИГРА 18+

pack

ВАЖНО

!!Акция!!

Alien_RageХит недели

RePack

MK11
pack

Забери бонус

RePack

jed

!!Акция!!

Alien_Rage

RePack

fifa19

RePack

Assassins Creed: Odyssey

RePack

NEED FOR SPEED™ PAYBACK

4 сезон

9 сезон

Бесстыжие 9 сезон

Все сериалы

все сериалы на PB.wtf

RePack

FAR CRY 5
  

Разбитое зеркало / Сезон: 1 / Серии: 1-8 из 8 (Олег Фомин) [2020, Мелодрама, HDTVRip] pb.wtf

Разбитое зеркало через торрент pb.wtf

Размер: 4.56 GB | Добавлен: 4 мес. 29 д. назад | Торрент скачан:56 раз
Скачать  

20-05-2020 09:36 Разбитое зеркало Скачать торрент  

Разбитое зеркало
Год выпуска: 2020
Страна: Россия
Жанр: Мелодрама
Продолжительность: ~ 00:45:00
Субтитры: отсутствуют

Режиссер: Олег Фомин



В ролях: Екатерина Гусева, Александр Лазарев (младший), Алексей Макаров, Станислав Дужников, Екатерина Волкова, Владимир Гостюхин, Денис Нурулин, Мирослава Михайлова, Арина Постникова, Дарья Белодед, Андрей Карако, Зоя Мансурова, Владимир Хацкевич, Алла Будницкая, Александр Головин, Мария Селянская, Сергей Лазарев

Описание: В лесу находят тело пропавшей много лет назад почтальонши. В её сумке сохранилось несколько писем, и их отправляют адресатам. Так Даша получает весточку из прошлого от своего жениха Олега. Это письмо переворачивает всю её жизнь. Даша узнаёт, что её любимый, которого считали погибшим, на самом деле жив. Если бы она получила это письмо вовремя, то не вышла бы замуж за нелюбимого Мирона, да и вся её жизнь сложилась бы иначе... Даша решает выяснить, что же на самом деле произошло 20 лет назад и начинает своё расследование. Распутывая старые тайны, Даша узнаёт, что всё её окружение – муж, лучшая подруга Елена и даже родной брат Виктор – совсем не те, кем она их считала. Оказывается, все эти годы её брак с Мироном держится на обмане, а в основе успешного семейного бизнеса лежит преступление. Даша разыскивает Олега в надежде, что судьбу можно повернуть вспять. Но вскоре на её пути появляется загадочный незнакомец Павел, который приезжает в город, чтобы отомстить своим врагам из прошлого…

Качество: HDTVRip
Формат: AVI

Видео: 720x400 (1.80:1), 25 fps, XviD build 73 ~1600 kbps avg, 0.22 bit/pixel
Аудио: 48.0 kHz, AC3 Dolby Digital, 2/0 (L,R) ch, ~ 192 kbps
скриншот  скриншот  скриншот  скриншот  скриншот  

General
Complete name : H:\fiiles x\Разбитое зеркало .2020.HDTVRip.Files-x\02. Разбитое зеркало .2020.HDTVRip.Files-x.avi
Format : AVI
Format/Info : Audio Video Interleave
File size : 547 MiB
Duration : 42mn 28s
Overall bit rate : 1 801 Kbps
Writing application : VirtualDubMod 1.5.10.3 | www.virtualdub-fr.org || (build 2550/release)
Writing library : VirtualDubMod build 2550/release

Video
ID : 0
Format : MPEG-4 Visual
Format profile : Advanced Simple@L5
Format settings, BVOP : 1
Format settings, QPel : No
Format settings, GMC : No warppoints
Format settings, Matrix : Custom
Codec ID : XVID
Codec ID/Hint : XviD
Duration : 42mn 28s
Bit rate : 1 600 Kbps
Width : 720 pixels
Height : 400 pixels
Display aspect ratio : 16:9
Frame rate : 25.000 fps
Color space : YUV
Chroma subsampling : 4:2:0
Bit depth : 8 bits
Scan type : Progressive
Compression mode : Lossy
Bits/(Pixel*Frame) : 0.222
Stream size : 486 MiB (89%)
Writing library : XviD 73

Audio
ID : 1
Format : AC-3
Format/Info : Audio Coding 3
Mode extension : CM (complete main)
Codec ID : 2000
Duration : 42mn 28s
Bit rate mode : Constant
Bit rate : 192 Kbps
Channel(s) : 2 channels
Channel positions : Front: L R
Sampling rate : 48.0 KHz
Bit depth : 16 bits
Compression mode : Lossy
Stream size : 58.3 MiB (11%)
Alignment : Split accross interleaves
Interleave, duration : 40 ms (1.00 video frame)
Interleave, preload duration : 500 ms

Когда раздача ведётся путём добавления новых серий, при каждом добавлении создётся новый торрент. Чтобы начать докачку новой серии, пользователям необходимо сделать следующее:
(1) остановить скачивание,
(2) удалить старый торрент у себя из клиента (старые серии удалять не надо),
(3) скачать новый торрент и запустить его у себя в клиенте вместо старого, при этом указать клиенту путь в старую папку, куда и должно происходить скачивание новых серий.
Ваш клиент при этом должен произвести хеширование (проверку) старой папки (если не производит сам - помогите ему сделать это), и будет докачивать только те серии, которых у вас ещё нет. Старые серии при этом не удаляются, а продолжают раздаваться!
Eсли вы уже удалили старые серии, то предотвратить повторную закачку старых серий можно, отжав галочку в соответсвующих местах при запуске нового торрента. По возможности, желательно не удалять старые серии как можно дольше, чтобы релизер не столько продолжал раздавать старые серии, а смог сконцентрироваться на новых.
pb.wtf



Скачать Разбитое зеркало через торрент https://img11.lostpic.net/2020/05/18/2c306e97f01099389abbf6b8228f928e.jpg Скачать фильм Разбитое зеркало через торрент бесплантно в хорошем качестве Описание: В лесу находят тело пропавшей много лет назад почтальонши. В её сумке сохранилось несколько писем, и их отправляют адресатам. Так ... 10 10 6
Торрент: Зарегистрирован [2020-05-22 08:32] · скачан: 56 раз
Статус: √ проверено
Размер: 4.56 GB
Как cкачать? Как скачать Разбитое зеркало через торрент | qTorrent

% Раздел Тема Автор DL S | L
Наши сериалы [ 9.35 GB ] Разбитое зеркало / Сезон: 1 / Серии: 1-8 из 8 [2020 Мело HDTVRip 720p] bober100 Скачать
2 | 0
Наши сериалы [ 5.55 GB ] Разбитое зеркало / Сезон: 1 / Серии: 1-8 из 8 [2020 Мело HDTVRip-AVC] bober100 Скачать
2 | 0
Наши сериалы [ 19.35 GB ] Разбитое зеркало / Сезон: 1 / Серии: 1-8 из 8 [2020 Мело HDTV 1080i] bober100 Скачать
1 | 0
Наши сериалы [ 4.69 GB ] Разбитое зеркало / Сезон: 1 / Серии: 1-8 из 8 [2020 Мело SATRip] bober100 Скачать
1 | 0

28-11-2019 20:33  

Отключить всю рекламу на сайте

    Дорогой пользователь! Огромная просьба, поблагодарите релизера, оцените раздачу и оставьте свои комментарий, если Вы скачали Разбитое зеркало через торрент бесплатно! Внесите свою лепту в развитие PiratBit!
    Комментировать посты могут только пользователи прошедшие не сложную регистрацию
    Показать сообщения:    

    Разбитое зеркало через торрент
    Скачать бесплатно Разбитое зеркало
    Разбитое зеркало скачать торрент
    Разбитое зеркало смотреть онлайн
    Cкачать фильм Разбитое зеркало бесплатно
    Разбитое зеркало скачать торрент в хорошем качестве
    Разбитое зеркало смотреть онлайн бесплатно в хорошем качестве


    Вы не можете начинать темы
    Вы не можете отвечать на сообщения
    Вы не можете редактировать свои сообщения
    Вы не можете удалять свои сообщения
    Вы не можете голосовать в опросах
    Вы не можете прикреплять файлы к сообщениям
    Вы можете скачивать файлы